&title=夢の降る日に
&artist=seatrus
&first=-1.154
&des=
&des_1=藏曜日
&des_5= 海曜日
&des_6=gunmu
&lv_1=14+
&lv_5=14+
&lv_6=1
&inote_1=(260){4},,,,,,,,{1}7/3bq5<2[4:11],
,,8q5<4[8:15],
{8},,,,,,,,,,1,
7,3,6,2,5-8V61[8:17],
{1}1-4V25[1:2],
{4},,,,,,,4x,
{32}E7,B6,,,,,,,{4}3h[2:1],{2}5h[4:1],
{4},7,{32}E3,B3,,,,,,,{4}6h[2:1],
4h[4:1],,,3,
{32}2h[2:1]/B6,B5,,,,,,,{4}4x,5,{32}6h[2:1]/B3,B4,,,,,,,{4}5x,
4,{2}3/5pp1[8:7],
{8}4,3,{4}2-4[8:1],,7,
{12}2/8,3,4,6,7,8,2,3,4,8,7,6,
4,3,2,5,6,7,1,2,3,8,7,6,
1,2,3,4,5,6,2,3,4,5,6,7,
{3}8p5[4:3],{12},,,,5,5>3p1[4:3],,,,,,,,1,
{2}1<5[12:5],
{12},,,4,3,2,1,8,7,6,5,4,
{4}3>6[4:3],,,6>1[4:3],
,,{2}1p7[4:3],
{16},,,,7<3[2:1],6x,,,,,,,,,,,{4}7V51[4:3],
,,1V74[4:3],
,,4V61[4:3],3,
2,1-7[4:1],,2,
3/8h[4:1],{8}1-6[8:1],2,{4}3/1,4-1[8:1],
4-7[8:1],4-8[8:1],4x/5xV71[4:1],1V35[4:1],
5<1[4:1],{16}1,2,3,4,5,6,7,8,1,2,3,4,
{4}5/7,{8}1/8-3[8:1],7,{4}6/8,{8}4/7,6,
3/5-2[8:1],4,{4}5/7,8-5[8:1],8-3[8:1],
8<2[8:3],{16}E8,E7,E6,E5,E4,E3,E2,E1,{4}8xh[4:1],
{16}2b,3,4,5,6,7,8,1,2,3,4,5,{4}6/8h[4:1],
{8}1h,1h,7h,7h,{16}3,4,5,6,7,8,1,2,
3/7,6,5,4,3,2,1,8,{8}7/4h,4h,6h,6h,
{16}8b,1,2,3,4,5,6,7,8,1,2,3,{4}4/6h[4:1],
{8}3h,3h,5h/2h,5h/2h,{16}1,8,7,6,5,4,3,2,
{8}1/5h,5h,8h,8h,7h/1h,7h/1h,{16}2,3,4,5,
1b,2,3,4,5,6,7,8,1,2,3,4,{4}5/1h[4:1],
{8}8-3[8:1],7-4[8:1],8h,7h,{16}2,1,8,7,6,5,4,3,
2/8,7,6,5,4,3,2,1,5,4,3,2,6,7,8,1,
{1}2qq5[1:1]*qq6[1:1],
{8},,,,4/7,4-6[8:1]/7-5[8:1],7/4,4/7,
,8/3,{4}3-1[8:1]/8-2[8:1],3/8,{8}6,4,
{2}5<8[4:3],{4}8,8p4[4:3],
{8},,2,3,4pp7[4:3],,,2,
{4}1>3[4:1],1,,4<6[4:1],
6p8[2:1],7,8>7[1:1],7,
{8},,8,8,7>4[4:3],,,5,
{4}5<8[4:1],{8},,,,3,2,
{4}1>4[2:1],7,6,5<8[2:1],
4,{8}3,2,{4}1<6[2:1],{8}2,3,
{4}4,5>2[2:1],6,7,
8p5[2:1],1,2,3p8[2:1],
5,6,{8}7h[4:1],,,3,
6,4,7/3,3/7,2/6,6/2,5/1,5/1,
{4}8-4[8:1],8b,3/5-1[8:1],5/2-5[8:1],
2/8-4[8:1],8/3V17[4:1],7>4[4:1],{8}6,6,
{4}5-1[8:1],5/3-8[8:1],3/8-4[8:1],7,
3/6-1[4:1],1V75[4:1],3,4V28[4:1],
8-3[4:1],{8}6,5,{4}4-7[8:1],{8}4/2,1,
{4}8,{8}8/7,6,5/4,3,{16}2,1,2,1,
{4}3b-8[8:1],3/7-4[8:1],7/2-5[8:1],2/6-1[8:1],
4>7[4:1],{8}7V13[4:1],6,{4}5-1[8:1],{8}5,4x,
{4}3x-8[4:1],8-5[4:1],5-2[4:1],{8}6,7,
{4}8-5[8:1]*-3[8:1],8,2x/6x,{8}1/7,7/1,
2,3,4/6,6/4,7,8,{16}2,1,2,1,
3h[32:1],4h[32:1],5h[32:1],6h[32:1],{4}8h[8:3],{8},2,,,{1}1<4q8pp2[2:15]/8>5p1qq7[2:15],
{2},,,,,,,,,,,,,,1>6[1:1],
7,
6p8[1:1],7,
8>5[1:1],6,
5p8[2:1],{4}7,6,
{8}5/1,5,6/2,6,7/3,7,8/4,8,
5/1,5,4/8,4,3/7,3,2/6,2,
{16}8,7,6,5,3,2,1,8,5,6,7,8,2,3,4,5,
E8,E1,E2,E3,E4,E5,E6,E7,E8,E1,E2,E3,E4,E5,E6,E7,
{2}4xV28[1:2],5,
6h,7,
8q5[2:3],7,
6h,7,
8<4[1:2],{4}1,1,
{2}2h,3,
4q1[1:1],{4}3,2,
1<6[8:3]*p5[8:3],{16},,,,,,,,4,3,2,1,
{4}8/7h[4:1],{8}1,2,{4}8/3h[4:1],6,
{8}5/3,4,6,7,{4}3/8h[4:1],2,
{16}3,4,{8}3,2,1/6,{16}7,8,{8}7,6,2,
3/6,4,7,6,{16}3,5,3,5,2,4,2,4,
{8}1,7,{4}2/7h[8:1],6h[8:1]/4h[8:1],5h[8:1]/3h[8:1],
{8}1/7,2,6,5,3/4,4/3,{16}2,5,2,5,
{8}1,1,7/8,7h[8:1]/8h[8:1],,1h[8:1]/6h[8:1],,2/5,
{4}2h[8:1]/5h[8:1],3h[8:1]/4h[8:1],{16}6,7,8,1,5,4,3,2,
{8}7,7,2/8,2h[8:1]/8h[8:1],,4h[8:1]/6h[8:1],,5/7,
{4}5h[8:1]/7h[8:1],8h[8:1]/2h[8:1],{16}7,6,5,4,3,2,1,8,
{4}2h/7h,{24}1b/8b,7/2,6/3,5/4,,,,,,{8}6/5,7,8,
{4}1/2-5[8:1],1-5[8:1],8-4[8:1],7-4[8:1],
{8}1,2,3,6/4>8[4:1],,4,8,{16}6,5,
{4}4V68[4:1],8V24[4:1],4<8[4:1],{16}8,1,2,3,
{4}4>2[8:1],{16}7,6,{8}5,1x-5[8:1],5x-2[8:1],1,6>8[8:3],
,,{4}8V64[4:1],4<8[4:1],{8}1,2,
3-5[8:1],{16},,,,8,7,{4}6v1[8:1],3,
{8}2/8,3,4/7,6,5/3,2,8/1,7,
{24}1b/6,2,3,4,,,7b,6,5,4,,,8b,1,2,3,,,8b>3[16:3],7,6,5,,,,,,,,,7x,
8x,1x,2x,3x,4x,8x,1x,2x,3x,4x,5x,{16}8,7,6,5,
{24}2b,3,4,5,,,1b,8,7,6,,,8b,1,2,3,,,7b>2[16:3],6,5,4,,,,,,,,,6x,
7,8,1,2,3,7x,8,1,2,3,4,8x,1,2,3,4,5,
{8}E2/B2,E7,B5,E4,,E2,B7/B8,E3,
B4,E6,,B3/E4,{16}E8,E1,E2,E3,E4,E5,E6,E7,
{1}2xqq5[8:13],
{8},,,,,,,,8/3,
7,6/2,5,3,3,8/4,7,
6/3,5,2,2,1/5,8h[4:1],5,4,
7/3h[8:11],,,7,{2}7h[8:7],
{16},,,,,,,,8/4,1/5,2/6,3/7,4,5,6,7,
{1}4h[8:11]/8>8[8:9],
{12},,,,,,1h,5h,2h,6h,3h,7h,
{8}4/8xh[8:1],3,2/6h[8:1],1,{4}8/4h[8:1],{8}5/1h[8:1],6,
7/3h[8:1],8,{4}1/5h[8:1],{8}8/4h[8:1],7,6/2h[8:1],5,
{4}4/8h[8:1],{8}1/5h[8:1],2,3/7h[8:1],4,{4}5/1h[8:1],
{8}4/8-6[8:1],3,2/8v3[8:1],1,{4}8,{8}5/1-3[8:1],6,
7/1v6[8:1],8,{4}1,{8}4/8-5[8:1],3,2/8-4[8:1],1,
{4}8,{8}6/3,7,8/4,3,{4}2/1h[8:1],
{16}2,3x,1,8x,2,3x,1,8x,3,4x,8,7x,3,4x,8,7x,
4,5x,7,6x,4,5x,7,6x,{2}5xh[4:3],
{12},,,6,7,8,1,2,3,4,5,6,
{4}3x-8b[8:1]/7x-4b[8:1],3bxp1>5[4:13]/7bxp5<1[4:13],
E
&inote_5=(260){4},,,,,,,,{1}7/3bq5<2[4:11],
,,8q5<4[8:15],
{8},,,,,,,,,,1,
7,3,6,2,5-8V61[8:17],
{1}1-4V25[1:2],
{4},,,,,,,4x,
{32}E7,B6,,,,,,,{4}3h[2:1],{2}5h[4:1],
{4},7,{32}E3,B3,,,,,,,{4}6h[2:1],
4h[4:1],,,3,
{32}2h[2:1]/B6,B5,,,,,,,{4}4x,5,{32}6h[2:1]/B3,B4,,,,,,,{4}5x,
4,{2}3/5pp1[8:7],
{8}4,3,{4}2-4[8:1],,7,
{12}2/8,3,4,6,7,8,2,3,4,8,7,6,
4,3,2,5,6,7,1,2,3,8,7,6,
1,2,3,4,5,6,2,3,4,5,6,7,
{3}8p5[4:3],{12},,,,5,5>3p1[4:3],,,,,,,,1,
{2}1<5[12:5],
{12},,,4,3,2,1,8,7,6,5,4,
{4}3>6[4:3],,,6>1[4:3],
,,{2}1p7[4:3],
{16},,,,7<3[2:1],6x,,,,,,,,,,,{4}7V51[4:3],
,,1V74[4:3],
,,4V61[4:3],3,
2,1-7[8:1],,2,
3/8h[4:1],{8}1-6[8:1],2,{4}3,4-7[8:1],
3-8[8:1],6x,2x/5xV71[4:1],1V35[4:1],
5<1[4:1],1p4[4:1],4-7[16:3],3,
2h[4:1],{8}8-3[8:1],7,{4}6,{8}5,4,
5-2[8:1],6,{4}7,8-5[8:1],8-3[8:1],
8<2[8:3],{16}E8,E7,E6,E5,E4,E3,E2,E1,{4}8xh[4:1],
3b>8[4:1],8v3[4:1],7,6h[4:1],
{8}2h,2h,5h,5h,{4}3-5[4:1],5v2[4:1],
6,7h[4:1],{8}1h,1h,6h,6h,
{4}5/8b-4[4:1],4>1[4:1],5,6h[4:1],
{8}1h,1h,5h/2h,5h/2h,{4}6v1[4:1],4,
{8}5h,5h,8h,8h,7h/1h,7h/1h,2h,2h,
{4}3/1bV74[4:1],4V68[4:1],3,2h[4:1],
{8}1x-4[8:1],1x-6[8:1],,,{4}3xV17[4:1],7v4[4:1],
5,{8}6h,6h,3h,3h,1h,1h,
{1}2qq5[1:1]*qq6[1:1],
{8},,,,4/7,4-6[8:1]/7-5[8:1],7/4,4/7,
,8/3,{4}3-1[8:1]/8-2[8:1],3/8,{8}4x,5x,
{4}6h[2:1],,,5/2h[2:1],
,7,{2}2/6h[8:3],
{4}4,7/3h[2:1],,5,
4/6,7/5,8/6,4/7h[2:1],
,3,{8}6/2h[8:3],,,6,
{4}3/5-7[4:1],4,{8},,3,2,
{4}1>4[2:1],7,6,5<8[2:1],
4,{8}3,2,{4}1<6[2:1],{8}2,3,
{4}4,5>2[2:1],6,7,
8p5[2:1],1,2,3p8[2:1],
5,6,{8}7h[4:1],,,3,
6,4,7/3,3/7,2/6,6/2,5/1,5/1,
{4}8-4[8:1],8b,3/5-1[8:1],5/2-5[8:1],
2/8-4[8:1],8/3V17[4:1],7>4[4:1],{8}6,6,
{4}5-1[8:1],5/3-8[8:1],3/8-4[8:1],7,
3/6-1[4:1],1V75[4:1],3,4V28[4:1],
8-3[4:1],{8}6,5,{4}4-7[8:1],{8}4/2,1,
{4}8,{8}8/7,6,5/4,3,{16}2,1,2,1,
{4}3b-8[8:1],3/7-4[8:1],7/2-5[8:1],2/6-1[8:1],
4>7[4:1],{8}7V13[4:1],6,{4}5-1[8:1],{8}5,4x,
{4}3x-8[4:1],8-5[4:1],5-2[4:1],{8}6,7,
{4}8-5[8:1]*-3[8:1],8,2x/6x,{8}1/7,7/1,
2,3,4/6,6/4,7,8,{16}2,1,2,1,
3h[32:1],4h[32:1],5h[32:1],6h[32:1],{4}8h[8:3],{8},2,,,{1}1<4q8pp2[2:15]/8>5p1qq7[2:15],
{2},,,,,,,,,,,,,,1>6[1:1],
7,
6p8[1:1],7,
8>5[1:1],6,
5p8[2:1],{4}7,6,
{8}5/1,5,6/2,6,7/3,7,8/4,8,
5/1,5,4/8,4,3/7,3,2/6,2,
{16}8,7,6,5,3,2,1,8,5,6,7,8,2,3,4,5,
E8,E1,E2,E3,E4,E5,E6,E7,E8,E1,E2,E3,E4,E5,E6,E7,
{2}4xV28[1:2],5,
6h,7,
8xq5[2:3],7,
6h,7,
8<4[1:2],{4}1,1,
{2}2h,3,
4xq1[1:1],{4}3,2,
1<6[8:3]*p5[8:3],{16},,,,,,,,4,3,2,1,
{4}8/7h[4:1],{8}1,2,{4}8/3h[4:1],6,
{8}5/3,4,6,7,{4}3/8h[4:1],2,
{16}3,4,{8}3,2,1/6,{16}7,8,{8}7,6,2,
3/6,4,7,6,{16}3,5,3,5,2,4,2,4,
{8}1,7,{4}2/7h[8:1],6h[8:1]/4h[8:1],5h[8:1]/3h[8:1],
{8}1/7,2,6,5,3/4,4/3,{16}2,5,2,5,
{8}1,1,7/8,7h[8:1]/8h[8:1],,1h[8:1]/6h[8:1],,2/5,
{4}2h[8:1]/5h[8:1],3h[8:1]/4h[8:1],{16}6,7,8,1,5,4,3,2,
{8}7,7,2/8,2h[8:1]/8h[8:1],,4h[8:1]/6h[8:1],,5/7,
{4}5h[8:1]/7h[8:1],8h[8:1]/2h[8:1],{16}7,6,5,4,3,2,1,8,
{4}2h/7h,{24}1b/8b,7/2,6/3,5/4,,,,,,{8}6/5,7,8,
{4}1/2-5[8:1],1-5[8:1],8-4[8:1],7-4[8:1],
{8}1,2,3,6/4>8[4:1],,4,8,{16}6,5,
{4}4V68[4:1],8V24[4:1],4<8[4:1],{16}8,1,2,3,
{4}4>2[8:1],{16}7,6,{8}5,1x-5[8:1],5x-2[8:1],1,6>8[8:3],
,,{4}8V64[4:1],4<8[4:1],{8}1,2,
3-5[8:1],{16},,,,8,7,{4}6v1[8:1],3,
{8}2/8,3,4/7,6,5/3,2,8/1,7,
{24}1b/6,2,3,4,,,7b,6,5,4,,,8b,1,2,3,,,8b>3[16:3],7,6,5,,,,,,,,,7x,
8x,1x,2x,3x,4x,8x,1x,2x,3x,4x,5x,{16}8,7,6,5,
{24}2b,3,4,5,,,1b,8,7,6,,,8b,1,2,3,,,7b>2[16:3],6,5,4,,,,,,,,,6x,
7,8,1,2,3,7x,8,1,2,3,4,8x,1,2,3,4,5,
{8}E2/B2,E7,B5,E4,,E2,B7/B8,E3,
B4,E6,,B3/E4,{16}E8,E1,E2,E3,E4,E5,E6,E7,
{1}2xqq5[8:13],
{8},,,,,,,,8/3,
7,6/2,5,3,3,8/4,7,
6/3,5,2,2,1/5,8h[4:1],5,4,
7/3h[8:11],,,7,{2}7h[8:7],
{16},,,,,,,,8/4,1/5,2/6,3/7,4,5,6,7,
{1}4h[8:11]/8>8[8:9],
{12},,,,,,1h,5h,2h,6h,3h,7h,
{8}4/8xh[8:1],3,2/7h[8:1],1,{4}8/6h[8:1],{8}5/1h[8:1],6,
7/2h[8:1],8,{4}1/3h[8:1],{8}8/4h[8:1],7,6/2h[8:1],5,
{4}4/8h[8:1],{8}1/5h[8:1],2,3/7h[8:1],4,{4}5/1h[8:1],
{8}4/8-6[8:1],3,2/8v3[8:1],1,{4}8,{8}5/1-3[8:1],6,
7/1v6[8:1],8,{4}1,{8}4/8-5[8:1],3,2/8-4[8:1],1,
{4}8,{8}6/3,7,8/4,3,{4}2/1h[8:1],
{16}2,3x,1,8x,2,3x,1,8x,3,4x,8,7x,3,4x,8,7x,
4,5x,7,6x,4,5x,7,6x,{2}5xh[4:3],
{12},,,6,7,8,1,2,3,4,5,6,
{4}3x-8b[8:1]/7x-4b[8:1],{32}3bxp1>5[4:13]/7bxp5<1[4:13],Cf/E7/E3,
E
&inote_6=(260){4},,,,,,,,{1}2b,
,,,,,,,,,,,,,,,,,,,,,,,,,,,,,,,,,,,,,,,,,,,{4},,,{8}6,
4,
{2}5<8[4:3],{4}8,8p4[4:3],
{8},,2,3,4pp7[4:3],,,2,
{4}1>3[4:1],1,,4<6[4:1],
6p8[2:1],7,8>7[1:1],7,
{8},,8,8,7>4[4:3],,,5,
{1}5<8[4:1],
E
