&title=Evoltex (poppi'n mix)
&artist=Archvsn3pu
&first=0.02
&des=Tane
&lv_5=14
&inote_5=(205){1},
{16}4b>8[4:1],,,5,
{24},,,
6,,7,
,,7,,,8,
,,1,,,,
{16}8^5[4:1],,,1,
{24},,,2,,3,
,,4,,,5,
,,6,,,,
{16}7b<3[4:1],,,4,
{24},,,
3,,2,
,,1,,,8,
,,7,,,,
{16}8-4[8:1],,,1,
,,2,,
1-5[8:1],,,8,
,,7,,
{16}5b<1[4:1],,,4,
{24},,,
3,,2,
,,2,,,1,
,,8,,,,
{16}1^4[4:1],,,8,
{24},,,7,,6,
,,5,,,4,
,,3,,,,
{16}2b>6[4:1],,,5,
{24},,,
6,,7,
,,8,,,1,
,,2,,,,
{16}
1-5[8:1],,,8,
,,7,,
8-4[8:1],,,1,
,,2,,
{16}2-4[8:1],,,4,
2,,5,,
6,,6,5,
6,,47,,
{16}8-4[8:1],,,4,
8,,3,,
5v4[8:1],,4,,
3,,2,,
{16}1-5[8:1],,,5,
1,,6,,
7,,7,,
73,62,51,,
{16}1^3[8:1],,,4,
1,,6,,
8^6[8:1],,,5,
8,,3,,
{16}15,,15,26,
37,,37,,
48,,48,,
15,,15,,
{16}84,,84,73,
62,,62,,
51,,51,,
84,,84,,
{16}1,7,1,7,
1,7,1,7,
3,5,3,5,
3,5,3,5,
{16}68,,,15,
,,{48}1,2,3,4,5,,
{16}8,,,48,
,,57,,
{16}46,,3,,
2,5,,,
15,,6,2,
,,37,,
{16}48,,1,,
2,1,,,
7,8,,15,
,,37,,
{16}46,,26,,
1,5,,8,
4,,,15,
,,26,,
{16}38,,47,,
6,3,,,
25,,1,6,
,,78,,
{16}16,,25,,
3,7,,,
8-4[8:1],,,5,
,,2,,
{16}3,,74,,
6,2,,,
1-5[8:1],,,4,
,,7,,
{16}8,,73,,
6h[8:5],,,,
4,,,8,
,,2,,
{16}1,,26,,
3h[8:5],,,,
5,,,1,
,,7,,
{16}6h[8:1],,5h[8:1],,
6h[8:1],,5h[8:1],,
8,,3,1,
,,28,,
{16}3h[8:1],,4h[8:1],,
3h[8:1],,4h[8:1],,
1,,6,8,
,,71,,
{16}6h[8:1],,5,,
7,4,,,
38,,2,6,
,,15,,
{16}3h[8:1],,4,,
2,5,,,
61,,7,3,
,,37,26,
{16}15,,15,,
26,,26,,
37,,37,48,
51,,15,,
{16}48,,48,,
37,,37,,
26,,26,15,
84,,48,,
{16}1,7,1,7,
3,4,3,4,
{48}1,,,,,,
1,2,3,4,5,,
8,,,,,,
8,7,6,5,4,,
{16},,1b-5[16:1],,
,1b/7b-4[16:1],,,
7b/2b-5[16:1],,,8b-4[8:1]/2b,
,,8b/1b>8[4:12],,
{1}1b,,,,
{16}1/7,,,6,
,,5,,
4,,,,
,,,,
{16}8/2,,,3,
,,4,,
5,,,,
,,,,
{16}17,,,2,
,,3,,
28,,,7,
,,6,,
{16}18,,,2,
,,3,,
18,,,7,
,,6,,
{16}1b/8b,,,2,
6,,3,,
4,,,,
5,,6,,
{16}17,,{24},8,,
{16}1-5[8:1],8,1,,
8,,,6,
,,7,,
{16}18,,,26,
,,3,,
18,,,73,
,,6,,
{16}17,,,25,
,,4,,
28,,,47,
,,5,,
{16}17,,,3,
5,,26,,
1,,,,
6,,7,,
{16}82,,{24},6,,
{16}4v5[8:1],5,4,,
6,,,7,
,,8,,
{16}17,,2,6,
,4,,,
37,,,8,
,,1,,
{16}2,4,3,6,
4,5,3,4,
1-5[8:1],,,8,
,,,,
{16}2,4,3,6,
4b,5,3,4,
1-5[8:1],,,8,
,,7,,
{16}7,5,6,3,
5b,4,6,5,
8-4[8:1],,,1,
,,2,,
{16}2b,,2,,
1b-5[8:1],,1,,
7b,,7,,
8b,,8,,
{16}2,1,2,1,
4,6,4,6,
{48}1,,,,,,
1,2,3,4,5,,
8,,,,,,
8,7,6,5,4,,
{16},,,,
,,,,
,,,,
,,,,
{16}4-1[8:1],,4,,
5-8[8:1],,5,,
4w8[8:1],,3,,
4b,,,,
{16}16,,,7,
3,,15,,
3-6[8:1]/6,,,,
36,,7,,
{16}28,,,8,
4,,37,,
2-6[8:1]/6,,,,
26,,8,,
{16}4/8,,,8,
4,,37,,
15,,,1,
5,,26,,
{16}37,,,7,
3,,2-4[8:1]/6,,
1/5-7[8:1],,2b,,
5b,,,,
{16}4/8-4[8:1],,,4,
8,,3,,
2-5[8:1]/5,,,,
25,,6,,
{16}7-4[8:1]/4,,,4,
7,,2,,
1-5[8:1]/5,,,,
15,,7,,
{16}48,,,2,
6,,48,,
8,4,,3,
7,,48,,
{16}15,,,8,
4,,26,,
5,1,6b,,
6b,,15,,
{16}83,,,2,
6,,84,,
6-3[8:1]/3,,,,
63,,2,,
{16}71,,,1,
5,,62,,
7-3[8:1]/3,,,,
73,,1,,
{16}5/1,,,1,
5,,62,,
84,,,8,
4,,73,,
{16}62,,,2,
6,,7-5[8:1]/3,,
8/4-2[8:1],,7b,,
4b,,,,
{16}15,,15,,
26,,26,,
37,,48,,
37,,26,15,
{16}84,,84,,
15,,15,,
26,,26,,37,,37,,
{16}8,2,8,2,
6,5,6,5,
{48}8,,,,,,
8,7,6,5,4,,
1,,,,,,
1,2,3,4,5,,
{16}8b,,4b/6b,,
,2b/4b,,,
1b/8b,,,8b/4b,
,,1b/6b,,
{16}1^4[8:1],,4b,,
1^6[8:1],,6b,,
1^4[8:1],,3b,,
1^6[8:1],,7b,,
{16}1^4[8:1],,4b,,
1^6[8:1],,6b,,
1,,5b,,
5b,,,,
{16}8^5[8:1],,5b,,
8^3[8:1],,3b,,
8^5[8:1],,6b,,
8^3[8:1],,2b,,
{16}8^5[8:1],,5b,,
8^3[8:1],,3b,,
8,,4b,,
4b,,,,
{16}2^5[8:1],,4b,,
2^7[8:1],,8b,,
2^5[8:1],,5b,,
2,,7b,,
{16}7^4[8:1],,5b,,
7^2[8:1],,1b,,
7,,4b,,
4b,,,,
{16}2-4[8:1],,4b,,
2,,8b,,
7-5[8:1],,5b,,
7,,1b,,
{16}2-5[16:1],,1b,,
7-4[16:1],,8b,,
1-5[8:1],,1b,1,
1b,,,,
{16}8,,,,
7,,,,
6,,,,
6,,5,,
{16},,3,,
4,,3,,
25,,,,
1,,8,,
{16}47,,,,
8,,1,,
25,,,,
1,,8,,
{16}74,,6,5,
6,,74,,
18,,2,1,
2,,38,,
{16}26,,26,,
15,,15,,
48,,15,,
26,,37,48,
{16}15,,15,,
48,,48,,
37,,37,,
8,4,8,4,
{16}6,5,6,5,
1,2,1,2,
{48}1,,,,,,
1,8,7,6,5,,
1,,,,,,
1,2,3,4,5,,
{16},,8b-4[16:1],,
,8b/2b-5[16:1],,,
2b/7b-4[16:1],,,1b-5[8:1]/7bz3[4:8],
,,1bs5[4:8],,
{1}7b,,,,
