&title=eXtridia
&artist=unatra×Nego_tiator
&first=0.01
&des=Stargazer
&lv_5=14
&inote_5=(136)
{1},
{16}3,5,3,4,3,5,2,4,3,5,3,4,3,5,2,4,1>4[8:1],,6bx,,7bx,,8bx,,
1,2,1,3,1,2,8,3,1,2,1,3,E1,E8,E7,E6,E5/1,8,7,6,5,4,3,2,
{16}1/6,8,7,8,6,8,7,1,6,8,7,8,6,8,7,1,6pp7[32:5],,2bx,,3bx,,4bx,,
5,6,4,6,5,6,4,7,5,6,4,6,3,2,1h[8:1],8,7,6,5/2,1,8,7,6,5,
{8}4bx/7bx,5h[8:1]/6h[8:1],,2bx/5bx,3h[8:1]/4h[8:1],,
{16}1hb[8:1]/6hb[8:1],,,7b/8b,,,6x/7x,,5x/6x,,4x/5x,,
{4}2bqq5-7>2-4[8:7]/6h[4:5],,,,,
{24}5,6,5,6,5,6,
{16}4x<7[8:1],5x,3x,4x,,,2h[8:1],,6h[8:1],,5,,4/7-3[8:1],,3,,
{16}2,,1,4,2,5h[8:1],,4,2bx/6,3,4,5h[8:1]/1,,,1bx,2,3,8/4h[8:1],,,
{16}1,5,2,4,3,5,4,6,5,7,1,8,
{16}2x<7[8:1],1x,3x,2x,,,4h[8:1],,6qq7[4:1],,5-8[8:1],,6b,,,,,,
{16}2,1,2,8h[8:1],,5,5,6,4,5,3,4,1,8,1,7,1,8,5,6,4,5,3,4,
{16}2b/5bx,2,2,3bx/7b,7,7,
{8}4/6xh[4:1],3,2,1h[16:5],{16}7,6,5,4,1x,8,7,6,5,4,
{8}3>8[8:1],8-4[8:1],3,
{8}7,6,5h[8:1]/2,3,4,6/5h[8:1],
7h[8:1],5h[8:1],6h[8:1],5pp8[8:3],,,
{8}1,2,3h[8:1],2,3,4h[8:1],{16}3,4,5,6,7,8,{24}1/5,4,3,2,1,8,7,6,5,
{16}3,4,2,4,3h[8:1],,5,,6,,4/7h[8:1],,
2h[8:1],,4h[8:1],,3h[8:1],,4-7[8:1],,,,,,
{16}1h[8:3],,8x,7,6,5,4-8[8:1],,1,,2,,
{16}3h[8:3],,1x,8,7,6,5-1[8:1],,3,,4,,
{16}5h[8:3],,2x,1,8,7,6-2[8:1],,5,,4,,
{16}3h[16:5],,1x,8,7,6,{24}E3,E2,E1,E8,E7,E6,E5,E4,,
{16}8b,5,6,5,7h[8:1],,1b,4,3,4,2h[8:1],,7b,5,6,4,5,3,6b,4,5,3,4,2,
{16}8h[8:1],,1,8,7,6,2x/5,1,8,7,6,5,3,4,2,4,1,4,8,4,7V13[16:3],4,7,,,,
{24}5,6,7,8,4,5,6,7,8,
{16}1h[4:1]/5,,4,,4,2,5,2,6,2,7,2,8,2,1,2,
{48}4,,3,,4,,3,,,6,,,4,,,5,,,
{48}3,,4,,3,,4,,,2,,,5,,,3,,,
{48}6,,5,,6,,5,,,7,,,4,,,6,,,
{16}5,8,4,7,5,6,4,5,3,4,3,,
{16}2b/5b,,1,8,2h[8:1],,
{16}5,4,7,3,6,4,5,4,5,3,6,5,
{16}4/8,7,6,5,4h[8:1],,7,6,5,4,3h[8:1],6,5,4,3,2,1h[8:1],,
{16}2,1,3b/8b,,2,,
{16}2,3,4,3,4,5,
{16}7,6,5,6,5,4,
{16}2,3,4,5,4,3,
{16}7,6,5,4,5,6,
{24}2x,3,4,1x,2,3,5x,4,3,7x,6,5,8x,7,6,4x,5,6,1x,2,3,4h[16:3]/6,,,
{16},7,7,5,6,4,5,3,4,2,3,1,8,,5x/6x,5x/6x,,4b/7h[16:3],,,8,7,5,6,4,5,3,4,
{24}2,1,2,1,2,1,
{8}3x/8x-3[8:1],,,5x-2[8:1],,,1x<6[8:1],2,3,4xh[8:3],,5,
{8}5xp4[4:1],,,2x<7[8:1],,,4x-1[8:1],5,6,7xh[8:3],,8,
{8}8xqq3[8:3],,,5x<1[16:3],,,2x<6[16:3],3,4,5xh[4:1],,6,
{8}7<4[8:1],8,1,2<7[8:1],3,4,5-1[8:1],6,7,8h[8:3],,,
{16}5,6,3,4,2<7[8:1],,7pp6[32:7],,2,,5b,,
{16}5x,4,3,2x,1,8,7x/3,6,5,4x/8h[16:3],,,
{16}4,2,1,3,8-5[8:1],,5pp4[32:7],,4,,3,,
{16}2h[16:3],,,3,1,7,8b>3[8:1],,6,,7/8,,
{16}5,4,6,4,7,4,6,5,7,5,8,5,7,6,8,
{16}1b/2,,4b/5,,1/6b,,3b/7,,1b/8b,
{16}2h[8:1],,4,3,5,3,4,3,5,4,6,5,
{8}7>5[4:1],5,3/7,8bx,1bx,2xhb[8:1],
{16}4,3,6,5,7>2[8:1],,2qq3[32:7],,7,,4b,,
{16}4x,5,6,7x,8,1,2x/6,3,4,5x/1h[16:3],,,
{16}5,7,8,6,1-4[8:1],,4qq5[32:7],,5,,6,,
{16}7h[16:3],,,6,8,2,1b<6[8:1],,3,,2/1,,{16}4,5,3,5,2,5,3,4,2,4,1,4,2,3,1,
{16}8b/7,,5b/4,,8/3b,,6b/2,,8b/1b,
{16}7h[8:1],,5,6,4,6,5,6,4,5,3,4,
{24}1b,5,1,5,1s5[6:1],5,1,5,1,5,,,
{16},,,,
{16}7h[8:1],,5,6,4,6,5,6,4,5,3,4,
{24}2b,6,2,6,2-5[8:1]*v4[8:1],6,2,6,2,6,,,
{16},,,,
{16}6,4,6,5,6,4,7,5,6,4,6,5,6,4,7,5,8<5[8:1],,3b,,2b,,1b,,
8,7,8,6,8,7,1,6,8,7,8,6,E1,E2,E3,E4,E5/8,1,2,3,4,5,6,7,
{16}8/3,1,2,1,3,1,2,8,3,1,2,1,3,1,2,8,3qq2[32:5],,7b,,6b,,5b,,
4,3,5,3,4,3,5,2,4,3,5,3,6,7,8h[8:1],1,2,3,4/7,8,1,2,3,4,
{16}1b/5b,,2,3,4,3,2b/5b,,6,5,4,5,3b/6b,,7,6,5,6,5,4,3,4,
{32}2b/5b,1,8,7,6,5,4,3,2,1,8,7,6p4[16:3],5,4,3,2,1,8,7,6,,,,
{16},,
{16}7,5,6,2,5,3,4,1,6,5,7,1b/2b,
{1},E
