&title=Frey's Philosophy
&artist=Powerless
&first=0.345
&des=Slug
&lv_5=14
&des_5=Slug
&inote_5=
(200){4},{8},,,,,,B5/B4,
B5/B4/A5/A4,{16},,,,,,,,B8/B1,8x<1[16:11]/1x<1[16:11],,,,,,,,,,,,,,,,,,,{8}1/8,
A8/A1,,,,,4z8>1s5[4:3]/5s1<8z4[4:3],{16}A5/A4,E5,
{1}C,
6h[4:15]/4h[4:3],
3h[4:3],
{2}2h[4:1],1h[4:1],
8h[4:1],{4}7-4[8:1],7,
7h[4:1],{8}4,4,5,4/6-4[8:1],7,3qq4[8:3],
2,E5,,E7,,8h[8:3],,,5-8[8:1],
4,3-5[8:1],2,,1-3-5[4:1],7,1/5-7-1[4:1],
,B4,E3,B1,,B8,E7,E5,
{4}2h[4:1],{8}5,5,4,5/3-5[8:1],2,6pp5[8:3],
7,E5,,E3,,1h[8:3],,,6-4[8:1],
,,2-5[8:1],,,{4}8<5[8:1],
{8}4,3,{16}2,4,3,5,4,6,5,7,8,6,1,7,
{4}2x/8xh[4:1],{8}4,4,5,4/6-4[8:1],7,3bqq7[8:3],
,E5,,E7,,8h[8:3],,,5-8[8:1],
4,3-5[8:1],2,,1s5[4:1],7,1/5z1[4:1],
,B4,E3,E8,,B8,E7,E5,
{4}2h[4:1],{8}5,5,4,5/3-5[8:1],2,6pp5[8:3],
7,E5,,E3,,1h[8:3],,7,
7,7/8,8/7,1/7,7/2-8[8:1],7,{4}7,
{16}8x,6,1,7,2,8,3,1,2,4,3,5,4,6,5,7,
{8}8x/6x-4-2[2:1],{16},,,,8,7,{2}6,
{4}5<1[2:1],{8}8,1,{2}2,
{8}2-4<6[2:1],{16},,,,8,7,{2}6,
{8}8<4[2:1],,,4,3,2,,,1>5[2:1],
{16},,,,7,8,{2}1,
{4}2<6[2:1],{8}6,5,{2}4,
{8}4z8[2:1],{16},,,,7,8,{2}1,
{8}8,8,6,5,6/4>1[8:1],5,{4}4,
{8}7,8,7,{16}6,5,{8}6,4,3,2/4,
2h[8:1],3,2h[8:1],1<6[8:1],{16}2,2,{8}1,{4}2,
{8}2,1,2,{16}3,4,{8}3,5,6,7/5,
7h[8:1],6,8>3[8:1],{16}7,7,{8}8b,7,,,7,
8,7,{16}6,5,{8}6,4,3,2/4,
2h[8:1],3,1-6[8:1],{16}2,2,{8}1b,2,,,2,
1,2,{16}3,4,{8}3,5,6,7/5,
{12}8,6,7,1,3,2,6,8,8,4,2,2,
{8}3/5,{16}4,4,{8}4,5/3,{16}4,4,{8}4,3/5,{16}4,4,
{8}4,5/3,{16}4,4,{8}4,{4}3-7[8:1]/5-1[8:1],5/3,
{8}6/2,{16}1,1,{8}7,2/6,{16}7,7,{8}2,6/2,{16}1,1,
{8}8,2/7,{16}8,8,{8}1,{4}8/1-4[8:1]*-6[8:1],1,
{8}7/3,{16}4,4,{8}6,3/7,{16}6,6,{8}3,7/3,{16}4,4,
{8}5,3/6,{16}5,5,{8}4,{4}5/4-1[8:1]*-7[8:1],4,
{8}8/2,{16}3,4,{8}3,6/5,{16}7,8,{8}7,{16}1/2,3,4,2,
,,{8}5/1,{16}7,8,{8}6,{12}5/1,5/1,5/1,5x/1x,5x/1x,5x/1x,
{4}6x/2xh[4:7],7,8,1,
{8}3,3,{4}3,4,5,
5h/6h[4:7],4h,3h,2h,
1h,{8}8h,8h,{4}8h,7h,
6x/2xh[4:7],7,8,1,
{8}3,3,{4}3,4,5,
{8}6/3,{16}5x,4x,{8}3x,3/6,{16}4x,5x,{8}6x,5/2,{16}4,3,
{8}2,5qq3qq1qq7qq5[1:1],,,,,,,,,,,{4}8-5[8:1],
4,
{8}3/4,2,{4}8/1pp5[4:1],{8}7-4-8[4:1],6,{4}7,
{8}3h[8:1],1,2,4/3,5,6/8,5<8[8:1],8>3[8:1],
{2}3<6[8:1],{8}8<5[8:1],1,8/2,3,
{4}4<7[8:1],{8}4/2,3,{4}4h[4:1],8-5[8:1],
{8}3-7[8:1],4<8[8:1],,,1,2,4/3-1[8:1],5,
6-4[8:1],7,8>3[8:1],1,6-8[8:1],5,4-2[8:1],3,
6-8[8:1],5,3-5[8:1],2,1<6[8:1],8,{4}3qq5b[4:1],
{16}5<2b[4:1],6,7,8,,,,,{4}6b-1[8:1],4,
{8}3/8,2,{4}8/1-5-2[4:1],{8}7-1-6[4:1],8,{4}7,
{8}3h[8:1],6x,5,4/3,2,3/1,4>1[8:1],1<6[8:1],
{4}6>3[8:1],3,{8}1>4[8:1],8,1/7,6,
{4}5>2[8:1],{8}5/7,6,{4}5h[4:1],1-4[8:1],
{8}6-2[8:1],5>1[8:1],,,8,7,3/6-1[8:1],2,
{16}1,2,3,4,2,3,4,5,3,4,5,6,4,5,6,7,
{8}1-3[8:1],8-4[8:1],1-5[8:1],8-6[8:1],1,8,{32}2-6[8:1],3,4,8-4-8[32:9],7,6,,,2,
,,8,,,,,,,,,{8}C/B6/B2/B3/B5,,,{4}8-5[8:1],
4,{8}3/4,2,8/1q5[8:1],5v2[8:1],,6,
7,{16}8,1,{8}8,1,2,4/3,5,6/8,
5<8[8:1],8>3[8:1],{4}3<6[8:1],{8},,8<5[8:1],1,
8/2,3,{4}4-8[8:1],{8}4/2,3,{4}4h[4:1],
8p3[4:1],{8}3<6[8:1],2-8q4[4:1],,,7,6,
5/3-1[8:1],5,6,7,{4}8bh[4:1],{16}1,2,3,4,
2,3,4,5,3,4,5,6,4>7[4:1],5,6,7,,,,,{8}B4,
B2,{4}B8,{8}6h[4:1],5,4,3/4,
{24}2,3,2x,3x,,,,,{6}5/1,{24}7,6,7x,6x-4[8:1],{48},,,,,,,,,,,,,,,,{16}3,
2,1,8,3,2,1,8,{2}7h[2:1]/1<4[4:1],
{8},B4,B2/7>5[4:1],B8,,,B3,B2,
B7/1x>6>1[2:1],{16},,,,B7,B6,{2}E6,
{16}7,8,{8}7,{16}5,6,{8}5,{16}2,3,{8}2,{16}1,8,{8}1,
{16}7,6<1[8:1],{8}7h[16:3],{16},,,,6/2,7/3,8/4,1/5,2,3,4,5,
6/2,7/3,8/4,1/5,2,3,4,5,2/6,3/7,4/8,5/1h[48:43],6,7,{8}8,
{24}2,3,4,5,6,7,{12}8,{24}2,3,4,5,{32}6,7,8,D1/D2,{64}2bx/8bx,D8/D3,3bx/7bx,D7/D4,4bx/6bx,D6/D5,{32}5bxqq3qq1qq7qq5[32:105],{1},,,{4},,,{8}4,
4,6,3,
4,6,5h[8:3],4,,6,,7/8,
,8h,,1,{4}2-4[8:1],{8}5,6-8[8:1],
,,{4}2>5[8:1],{8},6<1[8:1],,,5,
4,3,2,1,1,7,2,
1,7,8h[8:3],1,,7,,6/5,
,5h,,4,3h[8:1],4,3,4/3,
,6,5,4/3,,4/3,5,6h[4:1],
5,4,6,4,5,5,3,6,
5,3,4h[8:3],5,,3,,2/1,
,1h,,8h,8h,8h,,7,
6,7,5,7,4,7,{16}3,7,3,7,
3,7,3,7,3-7b[8:1],7-3[16:55],3,7,{2}3,
E
