&title=Johann.Mouse(chapter Ⅲ)
&artist=-
&first=0.05
&des=The cat that could play and the mouse that could dance
&clock_count=4
&lv_5=14
&inote_5=||
chapter
3
(90)
{1},
{8},4h[4:1],,6pp7[8:5],6bxqq5[2:1],,,,
{8},,,,6h[4:1],,3h[16:3],{16},4,
{8}4s8[4:1],,,,3h[4:1],B1,{16}C,2xw6[16:13],,,
{1},
||
1.皇帝圆舞曲
{16}5/3,,,2,1-3[16:1]/6,,,7-4[16:1],1x-5[16:1],,7x,,1x,,,,
{16}6/4,,,7,8/3>8[16:1],,,7<4[16:1],3x-7b[16:1],,7x,,,,,,
{16}1h[8:1],,7,,1h[8:1],,8v7-5[6:1],,2h[8:1],,8,,3h[8:1],,,,
{16}4-8[12:1],,2-5[12:1],,,,,,7-4[12:1],,5-1[12:1],,,,,,
{24}4x-7[12:1],1x,4x,1x-5[12:1],4x,1x,,,,,,,8x-4[12:1],5x,8x,5x-1[12:1],8x,5x,,,,,,,
{16}5h[8:3],,2,,4,,2,,4h[8:3],,7,,5,,7,,
{16}5h[8:1]/4,,3,,4/5h[8:1],,3,,4h[8:1]/5,,6,,4h[8:1]/5,,6,,
{16}5h[8:1]/3h[8:1],,,,2h[8:1]/7h[8:1],,,3,4xw8b[8:7]/5x,,4,,4,,,,
{1},
{12},,,,,,,
||
2.美酒,女人和歌圆舞曲
(124)
{12}1,,,,1/7x,,{16}2,5,3,3x,6,4x,7,5,
{24}8,7,6,5/4,3,2x,{16}1h[16:1],,5,2,6xh[8:1],,1x,2,3,4/5,,,
{16}5/6h[8:3],,7-2[12:1],,,,7,,,{32}5,,,,1bx,8x,7x,6x,5x,4x,7bx,6x,5x,4x,3x,2x,5bx,4x,3x,2x,1x,8x,
(130)
{12}7bx,,,,,,,,,,,B2,
{16}B8/B7,,,,,,,,,,6/5,,,,4,,
{16}6/5,,,7,,6/4,,3,,,5/3,,{12}6,5x/3x,2x,
{16}6x/1x,,5,,4-8[8:1]/2,,3,,4/6-4[8:1],,7>3[16:3],,,,,,
{16},7,,,,1qq6[2:1],,,2,,3,,4,,,5x,
{12},,4,{16},2,,8h[8:1],,1,8,,3/7,6,,4,
{16}8h[8:1],,5,7/4,{12},3,6,{16},4,6h[8:1],,5h[8:1],,4h[8:1],,
{16}3h[16:3],,,8h[16:3],,,1,,,1/7h[16:3],,,3,,,,
{16}7/5h[32:7],,,{32},8h[32:7],{16},,,{64}A6/D7/E7/B6,D6,A5,D5,A4,D4,A3,D3,A2,D2,A1,D1,,,,,,,,,
(150)
{16},1bx/6bx,,,{24},1/7,6xh[24:4],,,,2x,3,4,5-8[8:1],,,,,5/3,,,,
{24}2,,,7qq7[4:1],,8x,1xh[8:3],,,,,,,,,,,,8/2,,,1/3,,,
{24}2/4,,,,6/4,,,6/8,,,8/2h[24:5],,,,,1b,,,2xqq2>5[2:1]*qq6[2:1]/8x,7,6,5,4,3,
{24},,,,,,,,,,,,,,,8/4,,,,3/1-6[8:1],,,,,
{24}1-4[8:1],2,,,,1,,,,6,,,,3/7,,,8-3[8:1]/2,,,,6/1,,8x,,
{24},,7x,,,6x/2x,,,,5/1,,,2qq2[4:1]/7,,,7,6,5,4h[8:1]/2,,,,,,
{24},5,,,2/6,,,3/7,,,,4-1[12:1]/8-5[12:1],,,,4b/8b,,,,,,,,
||
3.闲聊波尔卡
(166)
{12}2x,2xh[24:11],,,,{24},1x,,1xh[24:11],{12},,,,8x,
{12}8xh[24:11],,,,,{24},7b,{12},,,,,,
(103)
{16}1,{48}7x,6x,5x,,2,,,4,,,1,,,7x,6x,5x,,,{16}2,4,1,7/1,7/2,7/3,7/4,7h[8:1]/5-1[206#8:1],{48},,,
{48},,,,,8,,,{48}2x,3x,4x,,,{16}7,5,8,{48}2x,3x,4x,,,{16}7,5,{32}7x,5x,6x,4x,5x,3x,4x,2x,3x,1x,
{32}2x,1bx,,,
(190)
{16}8x,1x,8x<5[8:1],,2x/7x,,8>3[8:1]/1,,,,8-4[8:1]/7,,,,8/1,,
{16},,,5-2[8:1]/3,,6/4,,5-8[8:1]/7,,,,5/3,,,,,
{24}5x/7x,4x,3x,,,,1x-4[8:1]/5x,6x,7x,,,,{16}1-6[8:1]/8,,,,1/2,,,,
{24},,2x/7x,3x,4x,,,,3x-8[8:1]/8x,7x,6x,,,,{16}3/4-7[8:1],,,,1/4,,,
{24},,,8x/2x,3x,4x,,,,,1x-3[8:1]/7x,6x,5x,,,,{16}1/4-8[8:1],,,,4/7-5[8:1],
{16},,,7/1,,,,,2/4-1[8:1],,3/5,,4/6-3[8:1],,,,
{16}6/2,,,,{24}2bx/5bx,3x/6x,4x/7x,,,,7bx/4bx,6x/3x,5x/2x,,,,,{16}1-4[8:1]/5,,6,,
{16}7/1,,,,8-5[8:1]/3,,2,,1/8,,,,{24},3x,4x,3x,4x,
{16}2x,,2x,,2x,,2x,,2x,,2xqq2[4:1]*qq2qq2b[4:2]*qq2qq2qq2[4:3],,2x,,6xh[8:1],,
{16},,6xh[8:1],,,,6xh[8:1],,,,,6pp6[4:1]*pp6pp6b[2:1],,6,,3xh[8:1],
{16},,,3xh[8:1],,,,{24},3bx,2x,1x,,,,6bxqq6[4:1]*qq6qq6b[2:1],7x,8x,,,,{16}2h[8:1],
{16},,,2h[8:1],,,,,{24}2bx,3x,4x,,,,,7bx,6x,5x,,,,
{16}3h[8:1],,,,3h[8:1],,,,{24}5x,4x,5x,,,,,3x,4x,3x,,,,
{24}6h[8:1]/4,,,,,,,6h[8:1]/4,,,,,,6h[8:1]/4,,,,,,3,,
{24},6,,,1h[8:1]/7,,,,,,1h[8:1]/7,,{16},,,1,8,1,,8,
{16}1,8,,1-5[8:1],,8/2,,1,,,,8-4[8:1],,1/7,,8,
{16},,,,3x/6x,,B6,E3,E8,,B1,,
{16}E8,,B1,,E8,,B1,,
(180)
{16}E8,3x,,4,,5,,6,,3,,4,,5,,
{16}6,,2,,4,,5,,7,,2,,4,,6,,8,
{24},1/2,,,2/3,,,3/4,,,4/5,,,5/6,,,6/7,,,7/8,,,8/1,,
{16}2xh[8:1],,4xh[8:1],,6xh[8:1],,8xh[8:1],,2bh[4:1],,,,1,,,,
{16}B2/B3/E3,,7,,4,5,4h[8:1],,5,,2/6,,7,1,
{16}8-4[8:1],,1,,8/2-5[8:1],,3,,2/6-1[8:1]*-3[8:1],,7,,6,,,,2/7,,
{8}1-5[8:1],2xh[4:1],,,8-4[8:1],7xh[4:1],,,
{16}3x,2x,1x-3[8:1],,1x-7[8:1],,1x-5b[8:1],,,,,,,,,,
||
wait
a
second
{1},
{16},,,,,4,5,4,5,3,6,3,6,2,7,2,7,3,6,4,8,2,7,3,5,1,6,3,5,3,4,2,5,3,6,4,7,2,1,3,8bx<5p4p5[1:3],,,,,,,,,
{1},,
||
4.闲聊波尔卡
{16},,,,,,,,,,,,,{24},{8}1-5[8:1],2xh[4:1],,,8-4[8:1],7xh[4:1]/1x,,,
{16}3x,2x,1x-3[8:1],,1x-7[8:1],,1xw5b[8:1],,,,,,,,,,{24},,
{1},,,
{2},
||
End
(93)
{24}3p7[2:1],,,5,,,5h[8:1],,,,,,,6,,,5,,,5h[16:2],,,,,
{16},1,7pp7[8:1],7,1,1,,,,3,7<4[16:1],7,2,2,,{48},E3,E2,E1,
{32},,,{64}5w1b[16:13],6,7,8,,,,,,{16},,,,,,,,
{24},,,,,,,,
E
