&title=Inebriation of Raghs-e-Nilou
&artist=HOYO-MiX
&first=4
&des=千原葵
&lv_5=12+
&lv_6=13+
&inote_5=(100)
{4},6h[4:9],,,,,,2h[4:9],,,,,,7h[4:9],,,,,,3h[4:3],,,,73,
{4},3qq7[4:2],5,5,6pp2[4:2],4,4,
{4}3pp7[4:2],8,8,6qq2[4:2],1,1,
{4}3pp6[4:2],1,6pp1[4:2],8,
{4}1pp4[4:2],7,4pp7[4:2],8,
{4}7pp2[4:2],8,5h[4:2],
{4},1^4[8:1],1^6[8:1],1pp5[4:2]*qq5[4:2],,
{4},,4qq2[8:1],4pp6[8:1],4^3v1[8:1],4^5v7[8:1],4w8[12:1],
{4},5^8[8:1],5^2[8:1],5pp1[4:2]*qq1[4:2],,
{4},,8qq6[8:1],8pp2[8:1],8^7v5[8:1],8^1v3[8:1],8w4[12:1],
{4},2pp4[8:1],6pp8[8:1]/2,3qq1[8:1]/6,7qq5[8:1]/3,4z8[8:1]/7,43,
{8}6pp8[8:1],6,2pp4[8:1],2,7qq5[8:1],7,3qq1[8:1],3,8z4[8:1],8,Cf,,
{4}1pp3pp5pp7pp1[4:10]b,,,,,{8},4,4-8[4:4]*-8[4:4],,,,,,,,
{4},,2-6[4:1],6-3[4:1],3^5[4:1],5w1[4:1],
{4},,7-3[4:1],3-6[4:1],6^4[4:1],4w8[4:1],,
{8},,6h[32:1]/4,5/3h[32:1],7h[32:1]/4,2h[32:1]/5,8/4h[32:1],1h[32:1]/5,
{16}64,64,53,53,74,74,25,25,84,84,15,15,
{8}7x-4[12:1]/8x-4[12:1],61,87,6b/2b,,
{64}D8,A8,D1,A1,D2,A2,D3,A3,D4,A4,D5f,,,,,,
{8}7x/5x,62,73,8b/1b,,
{8}2x-4[12:1]/1x-5[12:1],38,12,3b/7b,,
{64}D2,A1,D1,A8,D8,A7,D7,A6,D6,A5,D5f,,,,,,
{8}2x/4x,37,26,1b/8b,,
{8}1xs5[12:1]/8xz4[12:1],27,18,3b/6b,,
{32}48,37,26,15,8b/4b,,,,
{8}3x/1x,26,37,4b/5b,
{8},1>5[4:1],7,5<1[4:1],2,1>5[4:1],6,5pp7pp1[4:2]*qq3qq1[4:2]b,,
{4},,,,,5s1[16:1],,,
{4}6pp8pp2pp4pp6[4:15],,,,,,,
{4},,,1h[4:6],,,,,,,,,,
{1}E1/E7/E5/E3/B1/B2/B3/B4/B5/B6/B7/B8/A1/A2/A3/A4/A5/A6/A7/A8/C,E
&inote_6=(100)
{8},,6h[4:6],,,{64}4,3,2,,,,,,{8}8x,1,2h[4:3],,,
{8},,,,7,4,5,,6,{64}4,3,2xqq5[8:3],,,,,,{8},6h[4:2],,
{8},,1,2,63,7,8,1,{24}2,3,4x/8,7,6,1h[64:35],,,,
{8},,,5,6,73,73,,84,{32}37,26,1xqq2[8:2]/5qq6[8:2]b,,,,,,
{8},,,,2p7[8:2],,7^2[8:2],,2V46[8:2],,6v8[8:2],,8z4[8:2],
{8},4v1[8:2],,1^4[8:2],,4V68[8:2],,8v2[8:2],,2w6[8:2],,,
{8},,,7q2[8:2],,2^7[8:2],,7V53[8:2],2,3v1[8:2],,1s5[8:2],
{8},5v8[8:2],,8^5[8:2],,5V31[8:2],8,1v7[8:2],,7w3[8:1],,,,
{24},,,,,,1xb/5,,,,,1,3/7xh[8:1],,,4,,,6x/2pp5[8:3],,,,,8,2x,,,7,,,8x,,,7,,,1/4x,,,
{24},,,2x-5[8:1]/6,,,1,,,2x/8-4[8:1],,,7,,,8/3x^8[8:1],,,2,,,3x^4v6^7[8:2],,,,,,,,,,,,
{24},,,,,,5x/1,,,,,5,7/3xh[8:1],,,8,,,2/6xpp1[8:3],,,,,4,6x,,,3,,,4x,,,3,,,5/8x,,,
{24},,,6x-1[8:1]/2,,,5,,,6x/4-8[8:1],,,3,,,4x/7^4[8:1],,,6,,,7x^8v2^3[8:2],,,,,,,,,,,,
{8}E8/B8f/B7,,6q1[8:2],,1-6[8:2],,4-1p3[8:3]b,,4,,7w3[8:1],,7,
{8},3p8[8:2],,8-3[8:2]b,,5-8q6[8:3],,5,,2w6[8:1],,2,,
{8}5hb[8:6]/1>1[8:12],,,,,,,,,,,1,1V35V71[8:8],,Ch[8:8],,,,,,,,
{4},8<8[4:10],,,,,,4-8[4:4]*-8[4:4],,,,,
(200)
{8},,,,2h[64:3],7,,,2h[64:3]/7h[64:3],,2h[64:3],7,
{8}3,7,3,7,2,6,2,6,
{12}2,6,1,5,1,5,1,5,
{16}1,5,1,5,
{20}1,26,37,48,5b/1b,,,{54}
(100)
{8},8h[64:1]/4x,8x^5[24:1]/4h[64:1],,
{64}4,3,2,1,4,3,2,1,
{16}8,5,6,1,4,3,6,5,1-5[12:1]/2-6[12:1],,38,,2b/1b,,
{8},4h[64:1]/8x,4x^1[24:1]/8h[64:1],,
{64}8,7,6,5,8,7,6,5,
{16}4,1,2,5,8,7,2,1,5bz1[12:1]/6bs2[12:1],,7b/4b,,6b/5b,,
{8},1bh[64:1]/5b,1b>5[24:1]b/5h[64:1]b,,
{64}5b,6,7b,8,5,6xb,7,8xb,
{16}1,5,6,1,4,3,6,5,3,6,4,7,
{32}1,2,3,4,5,8,7,6,5,4,3,2,1,8,73,62,51,48,3,2,1,8,7,2,3,4,5,6,7,8,15,26,3bh[4:5]/7bh[4:5],,,,
{4},,,,,,{8},,,2xqq5[4:4]`6xp3[4:6]b,,,,,,,,,,,,,
{1},Chf[4:10],{4},,,,,,/B1/B2/B3/B4/B5/B6/B7/B8/E1/E2/E3/E4/E5/E6/E7/E8/D1/D2/D3/D4/D5/D6/D7/D8,,,,,,E
