&title=Re:incRnaTiØN ~夕焼ケ世界ノ決別ヲ~
&artist=Apo11o"FILAMENT"program ft. 大瀬良あい×Ritsuka
&first=0
&lv_5=14+
&des=「光を、闇を」
&inote_5=(206)
{1},,,
{16}7,8,7,8,6,1,5,2,4,3,5,4,5,4,6,3,
{4}7b>6[4:2]/2h[8:6],,,{16},,2,3,
{4}4bh[4:1],{12}7,5,6,1,4,3,6-1[8:1]/2-5[8:1],,,
{4}2b/6b>8>6b[4:6],7xh,,7h,,7h,,8pp4[8:4],
8b/2h[4:2],,,{8}1qq5b[4:2],6,{4}1/7bh[4:1],,6b<2[16:3],,
{8}3-8[8:1],3,E7,,5-1[8:1],5,B3,,2>5[8:1],2,C,,6,{16}6,3,7,,{8}7,2<7[8:1],2,5-1[8:1],5,3<6[8:1],3,8-4[8:1],8,
{16}3,2,1,8,5,6,7,8,2,3,4,5,8,7,6,5,
{8}1-3[12:1],6,{16}1,7,7,,{8}4-8[8:1],7,4,6,1-3[12:1],4,1-7[12:1],6,1-5[8:1],5-1[8:1],1,6,
7-4[8:1],3,{16}7,2,2,,{8}5-8[8:1],1,5,3,
7-5[12:1],4,7-1[12:1],2,7,3,{16}6,5,6,5,
{8}8h[8:1],{16}2x,,2x/4x,,2,,26,,6,,64,,6,,
71,,82,,3,4,2,,6,5,7,,2,8,3,7,4,6,
5>7[8:3],,,,,,6-4-2-8b[8:3],,,,,,,,7<1[8:3]
,,,,,,8,,7-3b[8:1],,,,,,,,
{4}5bpp8[4:2]/1,3,3,2,2<7[8:1],6,4<7[8:1],2,
{8}83,,5-2[8:1],,6,7,7,1h[4:1],5,6h[4:1],4,3h[4:1],8,8,71,6,
{4}2bqq3[4:2]/5,5,5,5,4/7-3[8:1],2,1>4[8:1],7,
{8}5/8qq6[6:1],,3x,,2h[4:1],4,5,6h[4:1],4,2h[4:1],4,6h[8:1],{16}8-4[8:1],1,2,3,48,,,,
{8}6b/2b-7[8:1],,{16}72,,,,{16}8-4[8:1],,,3,8,,1,,{8}6-1[8:1],2,2,3,3,{16}7,5,7,,8,,
{8}1/7-3[8:1],,{16}2<7[8:1]/7,,,,{16}52,,6,,6,,1x,,{8}43,{16}8,,65,,2,3,{16}4/7-4[8:1],,8-3[8:1],,7,,8,,
{4}6<1[8:1],65,{8}4-8[8:1],4,7,7,16,{16}2,2,4,,6,5,7,4,8,1,7,2,6,3,
{8}5b-1b[8:1]/4b-2[8:1],,,,8-4[8:1],,,,
2xh[4:1],4x,4x,4x,
6xh[4:1],{8}4x,4x,4x,
{8}4-2[12:1]/8-6b[8:1],,,,5-1[8:1]/1-5[8:1],,,,
{8}7h[8:1],3h[8:1],8h[8:1],2h[8:1],{16}8,7,6,5,48,,,,
{8}1-4[8:1]/7-2[8:1],,,,8-5[8:1]/3-6[8:1],,,,
{8}2h[8:1],8h[8:1],4h[8:1],6h[8:1],2,2,8,8,
{8}5>2[8:1],7,7,7,6<1[8:1],2,2,2,
{8}3>8[8:1],5,5,5,{16}D8,D7,D6,D5,D4,D3/8bx-4b[16:1],,,
{8}8bx,,2pp1[3:1],,6h[16:4]/2,{16},,,,8,,
{8}7,6,2-4[12:1],5,2-8[12:1],7,2q5[12:4],5,
7h[8:1],,8,,3h[8:1],7,1h[8:1],5,7,
{8}7h[8:1],4b,6h[8:1],2b,8h[8:1],4b-7[8:1],,
{8}8pp6[8:3]/4,,8,,5,,2-7[8:1],,
{8}2/6qq8[8:3],,6,,1,,3,6,
{16}52,,1,,6,8,6,8,7,1,7,1,7,,82,,
64,,3,5,3,5,3,5,2,6,2,6,1,7,1,7,
{8}1b<5[8:2],,5>1[8:2],,1v4[8:1],,5,7<1[16:5],,
{16},,1>7[16:5],{16},,8x-4[8:1],,,,8,,,,,
{8}8/3pp2[8:3],,1,8,7,6,5,4-7[8:1]/1,
{8},,2pp5[8:3],8,,1b,1b,,
{16}
3b/7b,,6,5,6,,8b/2b,,3,4,3,,6b/5b,,87,,
2b/1b,,3,4,3,,2b/1b,,7,8,7,,6b/5b,,43,,
2,1,2,1,3h[8:1],,7,,5-1[8:1],6,5,6,5,,,,
7,8,7,8,6h[8:1],,2,,4-8[8:1],3,4,3,4>5-1-3b[4:4],,,,
{4}4b,,,,
5<4-8-6[4:3],,,,
2bpp8[8:4],,{8}7,,7-4[8:1]*-2[8:1],,
{16}7,,,,5x,3,5,3,2-5[8:1]/6-1[8:1],,,,62,,,,
{16}7,6,5,4,2,1,2,8,
2,7,2,6,2,5,2,4,
1,5,1,6,1,7,1,8,
1,2,7,6,2,3,6,5,
4bx,6x,4x,6x,2,5,2,5,
8,7,1,6,8,7,2,5,
{24}8bx,1,2,3,4,5,6,7,8,1,2,3,48,7,6,5,4,3,2,1,8,7,6,5,
{16}4b/1b,,2,2,8,,6b/4,,,,37,,2,4,2,4,3,5,3,5,4,6,4,6,5h[8:1],,7b<4[8:1],,,3b,,,1bh[8:1],,,,7,8,7,8,6,1,6,1,5,2,5,2,
4q8[8:1],,4,,,,,,1h[8:1]/2h[8:1],,,4h[8:1]/6h[8:1],,,71,,
{8}3qq7[8:5],,6,,5,5,,4,3xqq7b[8:5],,6,,5,5,,4,
3>8[8:1]*<6[8:1],,,,1xw5[8:1],,,,
3^8[8:1]/7^2[8:1],,3q4b[16:5]/7p6b[16:5],,,,,,
{8}1-3[12:1],1,{16}6,7,8,,{8}4-8[8:1],4,{16}7,6,5,,{8}1-3[12:1],1,4-8[8:1],4,2-5[8:1],2,1,8,
7-4[8:1],7,{16}3,2,1,,{8}5-8[8:1],5,{16}1,2,3,,{8}
7<5[12:1],4,7-3[8:1],2,7,1,{16}2,8,2,8,
{8}3/7x,{16}3,,3/4x,,3,,16,,6,,64,,6,,
71,,82,,3,5,3,,6,4,6,,2,8,1,8,
{32}2bx,3x,4x,,7bx,6x,5x,,{16}1,8,1,8,
{32}2bx,3x,4x,,7bx,6x,5x,,{16}1,8,1,8,
2b,4,3,5,4,6,8bx,7,1b,8,2,1,2,1,2,1,
{8}3-8[8:1],4,5-1[8:1],4,3<6[8:1],2,8-4[8:1],1,3-7[8:1],2,5-8V61[8:3],4,1,2,3,4,
5-2[8:1],8,5-8[8:1],7,5-2[8:1],3,5,7,6/1-6-2-4[16:7],1,5,5,7xV15[16:3],,,,
{16}2,,34,,6,5,6,,74,,3,,2,1,2,,38,,37,,36,,35,,34,,12,,38,,47,,
2b,6,5,6,5,6,5,6,1b,6,5,6,5,6,5,6,2b,6,5,6,5,6,4xb,7,3xb-8[8:1],7,3,7,3,,,,
2b,1,2,1,2,1,2,1,3b,8,3,8,4b,7,4,7,5b,6,5,6,5,6,5,6,4b,5,4,5,4,5,4,5,3b,4,3,4,3,4,3,4,2b,5,2,5,1b,6,1,6,8b,7,8,7,8,7,8,6x,2b,8,2,8,2,8,2,8,
{4}3pp8[4:2]/7h[4:3],,,,
{16}2,3,4,5,1,2,3,4,7,6,5,4,8,7,6,5,
{8}2-5[8:1],,12,,7-4[8:1],,87,,35,1,46,8,{24}1-5[8:1],2,3,6,7,8,{8}1,,
{16}7b,1,7,1,7,1,7,1,6b,2,6,2,6,2,6,2,5b,3,5,3,5,3,
5,3,4bx,2,5bx,3,6b,4,7b,5,8b,4,8,4,8,4,8,4,7b,3,7,3,7,3,7,3,6b,2,6,2,6,2,6,2,5b-1[8:1],1x,5,2,5,,,,
2b,1,3,8,4,7,5,6,4,5,3,4,2,5,1,6,
8,7,8,7,4,5,4,5,2,1,2,1,3,5,4,6,
8,7,1,6,8,7,1,6,2x,1,3,8,2,1,4,6,
2w6[8:1],,,,,,,,8w4[8:1],,,,,,,,
{4}7h[8:6]/2bqq5[8:4],,,,
{16}8b-4[16:1],,,2b-5[16:1],,,6b,,6b-1[16:1],,,4b-8[16:1],,,4b,,
7,6,5/1x,2,38,7,62,3,47,6,5,4,3,4,5,6,
8bh[4:2],,,2b,,,6b,,4bh[8:3],,,2b,,,6b,,
,
{8}75,6,6,{16}6,{12}3xh,4,3,7h,5,7,2h,1,4,6h,8,4,
1x/5x,15,15,26,26,26,3-8[8:1]/7-4b[8:1],,,
{4}3bp3>3[4:8]/7bp7<7b[4:8],
E
