&title=关于完全猜不到呐呐呐后面接了什么歌这件事
&artist=初音ミク&鏡音リン&Kizuna AI&遊助&凤凰传奇
&first=0.15
&des=宿傩AI
&clock_count=4
&lv_5=13
&inote_5=(145),,,,,,,,
{4}5pp4[4:5]b/4h[4:1],,3h[4:1],,{16}2,,,2,,,1,,1h[4:1],,,,,,,,
{4}6q7[4:5]b/2h[4:1],,3h[4:1],,{16}4,,,4,,,3,,3h[4:1],,,,,,,,
{4}1pp4[4:5]/8h[4:1],,7h[4:1],,{16}6,,,6,,,5,,5h[4:1],,,,,,,,
{4}3h[4:1]/7h[4:1],,1h[4:1]/5h[4:1],,7-2[4:1]/3h[4:1],,4-1[8:1]*-7[8:1],4b,
{8}
6x-4[8:1]/2x,,36,2,1-3[8:1],,17,6,54,3h[8:1],1-5[8:1],7,,,6,6,
7x-4[8:1]/1x,,78,1,2-5[8:1],,28,7-4-8[8:4]b,6,,,,1-5[8:1],,1b,,
3x/5x,2,3x/5x,1,4x/6x,3,4x/6x,2,4x/6x,7,4x/6x,8,5x/7x,8,4x/6x,8,
7x-4[8:1]/5x,8,1h[8:1]/7,,2x-6[8:1]/5,1,8h[8:1]/2,,
4x/8x-5[8:1]b,4x/8x,,,1x-5[8:1]b/4x,1x/4x,,,
{4}
3h[8:1],3h[8:1],2h[8:1]/4h[8:1],2h[8:1]/4h[8:1],
1>5p8[4:2]/5h[8:1],6h[8:1],{8}7,7,7,,
{4}6h[8:1],6h[8:1],7h[8:1]/5h[8:1],7h[8:1]/5h[8:1],
8<5q1[4:2]/4h[8:1],3h[8:1],{8}4,4,4,,
{4}8<5[8:1]/5h[8:1],3h[8:1],1>4[8:1]/4h[8:1],6h[8:1],
8<5[8:1]/5h[8:1],1>4-8[8:3],{8}6,6,6,,
{4}7<4[8:1]/3h[8:1],1h[8:1],1-5[8:1]/7h[8:1],8h[8:1],
1h[8:1]/6h[8:1],3h[8:1]/8h[8:1],{8}1b/7b,1b/7b,1b/7b,,
26,26,26,26,2-4[8:1]/6-4[8:1]b,,,,
17,17,17,17,1-4[8:1]b/7-4[8:1],,,,
2-4[8:1]/8-4[8:1]b,28,28,,1-5[8:1]b/7-5[8:1],17,17,,
3x/4x,1b/7b,56,2b/8b,34,2b/6b,8b<5[8:1]/4b,,
8xqq1[8:2]/3x,,48,,4V25[4:1],,5-1[8:1],,
8-5-2[4:1],7,6,,1xw5[8:1]b,,1,,
7^2[8:1],6,7x/5xh[8:1],,7^2[8:1],6,7x/5xs1[4:1],,
8,,6,,2b/7b,4b/5b,1b-3[8:1]/8b-4[8:1],,
18,,1p5[8:1]/8^6[8:1],,18,,1q3[8:3]/8,,8,7,6,,5<1[6:1]/4,,2,2,
2v3-5[4:1],2,6v7-1[4:1]b,6,,,4,4,4z8[4:1],,6z2[4:1]b,,,5x,5x-1[8:1],,
5x<8[8:1]b/6,,5>2[8:1]/4,,56,,7-3[8:1],8,
{16}7,,,1x,1x-4[8:1]`1!-6[8:1]b,,2,,1,,,,{8}3,3,
{16}25,,3,4,3,,2,,47,,6V84[4:1]b,5,6,,4-2[8:1],,
1w5[8:1]*w5[8:1]b,,,,,,,,7xh[4:1]/3x,,,,1,,1,,
{8}2>5[8:1]/6,,8,8,1>4[8:1]/7,,6,6,5,37,8<5[8:1],1/3h[8:3],,,4,4,
7<4[8:1]/3,,1,1,8<5[8:1]/2,,1,1,3qq8[8:4]/7,,,,7<4[8:1],,7b,,
1x/7x,34,2>4[8:1]/8q4[8:1],56,,,6,6,5x/7x,18,24,17,5v2[8:1]*v8[8:1]/4,,5b,,
3x/4x,26,7-5[8:1]/8-5[8:1],24,,,3,3,4x/2x,81,75,82,4v7[8:1]*v1[8:1]/5,,4b,,
5x/6x,38,4-2[8:1]/5-2[8:1],78,,,6,6,5x/7x,45,24,18,7-3[8:1]*-4[8:1]/2,,7b,,
1x/2x,47,5-8[8:1]/6-8[8:1],24,,,1,1,2x/4x,68,13,57,6-1[8:1]/2-5[8:1],,2b/6b,,
{16}3/7h[4:1],,5,,5,,,4,,4>1[8:1],5h[8:1],,,,,,
6,,6,,3h[16:3],,,5,,5<8[8:1]b,4h[8:1],,,,,,
3h[8:1],,7h[8:1],,B3/E4,,B6/E6,,1h[8:1],,5h[8:1],,E3/D3,,E7/D7,,
4h[8:1],,8,,6h[8:1],,1,,2^4[8:1],,8,,7,,6h[4:1],,
,,5,,5h[8:1]/6h[8:1],,,,47,,4h[8:1]/7h[4:1],,,,,,
1x/8x,,,2x/4x,,,7x/5x,,5x-3[8:1]/7x-5[8:1],,,,57,,,,
8h[4:3]/2-4[8:1],,,,,,,,2-5[8:1],,,,,,,,
12,,34,,56,,78,,12,,56,,4x>1[8:1]`8x<5[8:1]b,,,,
(145.2)4xq8[8:1]b`8xq4[8:1],,,,4x>1[8:1]`8x<5[8:1]b,,,,4b/8b,,,,6^3[8:1]/3,,1,,
36,,,1,1-4[8:1]`1!-6[8:1]b,,28,,1,,,,3,,3,,
25,,6,5,7,,3,4,2,,7,5,6^3[8:1],,3pp6[4:2],,6,,,,,,,,2^7[8:1],,,,2b,,,,
1>4[8:1],,,,8qq5[8:3],,,,4>1[8:1],,,,,,,,8<5[8:1],,,,2s6s2[4:2],,,,8h[4:1],,,,,,,,
8x-4[8:1],,7,,1h[4:1],,,,5x<8[8:1],,4,,2h[4:1],,,,
1x,,3,4,3x,,6,5,7b,,3b/4b,,1bx>4[8:1]`5bx<8[8:1]b,,,,
5xp1[8:1]`1xp5[8:1]b,,,,1x>4[8:1]`5x<8[8:1]b,,,,1b/5b,,,,2-6[8:1]/7,,3,,
27,,,8,8p3[8:1]b`8!q5[8:1],,17,,8,,,,1,,1,,
28,,3,4,3,,6,5,7,,3,4,2^4[8:1],,6-2[8:1],,2V85[4:1]b,,,,,,,,4h[4:1],,,,8,,8,,
17,,7,5,6,,2,4,3,,6,5,7,,3,4,2>5[8:1],,,8,8,,7,,6^1[8:1]b,,,,5,,5,,
5-1[8:1]/8,,,,7,,6,,5-1[8:1]/2,,,,2s6[8:3],,2,,3h[4:1],,,,,,,,C,,,,
{8}
16,5,4-8[8:1]b/1,,2,3,4-8[8:1]b/7,,7z3[8:3]b,7,6h[4:1],,,,E3/B2/B3/B7/B6/E7,,1,1,
3-5[8:1]/6-4[8:1]b,,,,2-5[8:1]/7-4[8:1]b,,,,18,45,27,36,8-4[8:1]/1,,8w4[8:1]b,,
8b/B8/Cf/B3/B5,
