&title=Glass Cages
&artist=Josie Brechner (feat. Sarah Hubbard)
&first=0.02
&lv_5=13+
&des_5=MFDaffodil
&inote_5=
(105){4},{8},,,,,,6,
5,4,3xp6[4:1],,6<2[4:1],,4,
{12}5,{24}6x,6xh[8:5],,,,,,,,,,,,,,,{8}2,2/4q8[4:1],
,8v5[4:1],1,2-6[8:1],,2x,,7,
{4}7V52[4:1],{8}2V86[4:1],3,{4}4-1[8:1],{8}4x,8x,
2x,3,4,5q2[4:1],,2<6[4:1],,3,
{12}4,{24}5x,5xh[8:3],,,,,,,,,{4}7-3[8:1],7b,
{8}4x,5,6,7xq3[4:1],,3xq8[4:1],,1,
{4}2>5[4:1],{8}2/5-1[4:1],6,{4}7-4[8:1],7x,
{8}3b,4-1[8:1],5,4x/6x-3[8:1],,6,,2,
{12}2,{24}4,2xpp5[8:3],,,,,,,,,,,,,,,{8}7-4[8:1],7,
7x/1xqq3[4:3],,,4x<7[8:1],,4bx,,,{4}7h[2:1],
{16}C,{32},,,,5,4,{4}3h[4:1],{8}8,7,
6b,5-8[8:1],4,5x/3x,,,B7/E7/B6,B2/B3/E3,
{12}4xh[2:1],{24},,,,,,,,6,7,{4}8h[4:1],C,
{8}2x,3-7[12:1],4,3b/5b-8[8:1],,,,3x,
{4}3xh[4:1],{8}2,1,8,7,{12}6/4,{24}2,4,,,{4}7b-4[8:1]/1b-4[8:1],
{24}7x/1x<6[8:1],,,,,3,{8}1xp5[8:1],2,{24}1x/6h[24:5],,,,,B2/B3/E3f,
,,,,7x,6x,{12}5xh[2:1]/3-7[8:1],3,3,{4}3,{24}7x,8,1,2x/6x,7,8,
{4}3b-6[8:1]/1b-6[8:1],{24}3x/1x>4[8:1],,,,,7,{8}1xq5[8:1],8,{24}1x/3h[24:5],,,,,B7/B6/E7f,
{48},,,,,,,,,,,,6x,5xh[12:1],,,,,,,,,,,3x,4xh[48:5],,,,,,,,,,,6x,5xh[48:5],,,,,,,,,,,{4}2b-5[8:1]/8b-5[8:1],
{24}2x/8xv3[8:1],,,,,6,{8}8xp4[8:1],7,{24}8x/3h[24:5],,,,,E2f/B1/B2,
,,,,,,5/6h[24:5],,,,,B8/B7/E8f,,,,,,,{12}3/8<5[8:1],{24}1,2,,2,
{4}8-4[8:1],{12}7/8-5[8:1],7,,2/8>3[8:1],2,,6/8-4[8:1],6,,8x/2q6[8:1],
2,,2x/7pp3[8:3],7,,{2}7b/4bh[4:1],
{4}5x<4[4:5],{12}3,3h[24:1],,3,3h[24:1],,2,2h[24:1],,7,
7h[24:1],,6,6h[24:1],,{2}Ch[4:1],
{12}7h[2:1],{24},,,,,,,,3x,2x,{4}1xqq2[8:3],{8}4x,5x,
{6}6x,{24}5,6,{12}7/4V28[4:1],4,4,{8}4-7[8:1]/8v3[8:1],6,{24}4bx,,,,,5,
6h[8:1],,,,,3,{8}4h[8:1],{24}2,,1,{8}2x,B7/E7/B6,{24},,{6}B2/B3/E3,
{4}3b-6b[8:1]/7b-2b[8:1],7bx/3bxV17[4:1],{8}7x-4[8:1]/3xv8[8:1],5x,{24}3bx,,,,,8,
7h[8:1],,,,,2,{8}1h[8:1],{24}3x,,4,{8}3,E8/B7/B8,{24},,{6}B3/E4/B4,
{4}2bx-5b[8:1]/6bx-1b[8:1],6b/2b,3>8[4:1],8<5[4:1],
5>2[4:1],7pp5[2:1],{8},2,{24},,{6}3,
{4}4-1[8:1],4x,7<4[4:1],4>1[4:1],
1<6[4:1],3pp1[2:1],{8},6,{24},,{6}7,
{4}8-5[8:1],8x,2>5[4:1],5<8[4:1],
{2}8>3[4:1],7bx-4b[8:1],
{12},2x,{24},2/4,,,3,4,,4,{12}3bx,{24}1,2,,5/7,,,,6bx,,8,
{12}7,4/2,{24},5,{12}4,{24}4,3,,3,{8}2-5[8:1],1,2x/8-4[8:1],{24}7,,6,
{8}8x,{24}5,,5,{12}6,{24}6,7,,7h[24:7],,,,,,,{12}8,{48}2,3,{24}4/5x,,6,
{12}5,{24}8,1,,4>1[8:1],{12}3,3,{24},6/4x,,,,{8}B7/E7/B6,2x/8x,{24}5/6,,7,
{12}8,{24}4,3,,8,{12}1-3[8:1],{24}7,5-7[8:1],,8,{8}1x-5[8:1],5xw1[8:1],,B5f,
{24},,,,,7,{12}8,6/1,{24},2,{8}1h[2:1],{24}2bx,3,4,{8}5,{24}8bx,7,6,
{12}5,Cf/B7/B3,{24},2,{12}1<6[8:1],{24}1,2,,2v5[6:1],{12}1b,{24}3,3,,2x/7x-4[8:1],,,8,8,,7x,
,,2x,3x,,3x,{12}4,4h[8:1],{24},Cf,,,,,,6,{12}6,5,{24},4b/6bh[6:1],
,,,1x,2,3,4x/8x,1,2,3x/7x,8,1,{4}2bx-5[8:1]/8bx-5[8:1],{24}2x/8x>3[8:1],,,,,6,
{8}8xq4[8:1],7,{24}8x/3h[24:5],,,,,B7/B6/E7f,,,6,5-1[8:1],,5,{8}6,5x/3x,
{24},,{12}8/3,{24},2,{12}8,{24}1,7,,8/6,{4}6bx-3[8:1]/8bx-3[8:1],{24}6x/8x<5[8:1],,,,,2,
{8}8xp4[8:1],1,{24}8x/6h[24:5],,,,,B2/B3/E3f,,,{12}6,5,4,3,4,
5z1[8:1]/6s2[8:1],6/5,6/5,6x/5x/E6f,,,{4}2b-5[8:1]/8b-5[8:1],{24}2x/8xv3[8:1],,,,,6,
{8}8xp4[8:1],7,{24}8x/3h[24:5],,,,,E2f/B1/B2,,,,,,,5/6h[24:5],,,,,B8/B7/E8f,
,,,,,,{12}3/8<5[8:1],{24}1,2,,2,{4}8bpp3b[4:3],8/4,
5,6pp2[4:3],6x,4x,
5x,{8}4x-8[8:1],3,{4}4/2h[4:1],{24}1,{48},,,,,,,,7,6,
{8}5h[1:1]/E1,E8,E7,E6,E5,E4,E3,E2,
{4}1x,1,1,1/7h[8:1],
{12}6,{24}4x,5x,,,{4}6,6,6/3h[8:1],
3,3,3,3,
6/E5,{8}6/E4,E3,{4}6/E2,6/E1,
2,2,2,2/8h[8:1],
{12}7,{24}1,8,,,{4}7,7,7/5h[8:1],
4,3,2,1,
{8}8/1,{16}3,3,4,5,,5/6,{8}6/5,{16}8,{32}7/1,2/6,{16}3bx/5bx-1[8:1],5,5,5,
{8}5b/2b-5[8:1],3,2/8-4[8:1],7,8/3-6[8:1],2,3/7-2[8:1],8,
7/4-1[8:1],3,5-7>8[8:1],6,{24}5/2v5[8:1],,,,,2x/8x,{8}2x/8xp4[8:1],7,
8b/3v8[8:1],2,3/7<4[8:1],6,7/2-5[8:1],1,2/8p4[8:1],1,
{24}8/3-8[8:1],,,,,5x/3x,{8}3x/5xpp1[8:3],6,5/2-4b[8:1],3b,{4}2b<7[8:1],
{8}2b/6b>3[8:1],5,6/1-5[8:1],2,1/7-4[8:1],8,7/3-8[8:1],2,
3/5-2[8:1],6,5x/4-8[8:1],3,{24}4/6-1[8:1],,,,,6x/2x,{8}6x/2x>5[8:1],3,
2/8-4[8:1],7,8/1-5[8:1],2,1/7<4[8:1],8,7q3[8:1]/1>3[8:1],8,
{4}1p5[8:1]/7<5[8:1],7-4b[8:1]/1-4b[8:1],7b/1b,{8}E7,C,
{1}E3f,
E
