&title=Reverberate
&artist=とろまる
&des=KazeKiyo
&first=-0.38
&des_5=KazeKiyo
&lv_5=14
&inote_5=(144){4},D3,{32}4h[8:3]/D6,E6,,,,,,,,,,,{16}3x,2x,
{4}1x,{32}5h[32:11]/D4,E4,,,,,,,,,,,{8}6xh[8:1],{32},,,,,,,,1h[8:3]/D8,
E8,,,,,,,,,,,{8}2h[8:3],{12}3,4,5,4,{4},{16},,{24},{16}5,
4,5,4,{2}4h[4:3],
{8}7,6,{4}5h[4:1],{16}3,5,2,4,1,3,2,4,
3,5,4,6,5,7,6,8,{24}E6,B5,B4,E8,B7,B6,E2,B1,B8,E4,B3,B2,
{4}1xh[4:5],,,5xh[8:5],
{8},,,1,5,{16}1,5,2,4,3,7,
5,6,8,7,{8}1/6,{16}2,5,3,4,2,5,3,4,2,1,
{8}8/3,{16}6,8,7,3,5,4,1,2,1,8,7,8,E8,5,
6,E2,4,3,B8,5,7,B1,4,2,7h[8:1],5x,4x,3h[8:1],4x,5x,
6h[8:1],4x,3x,2h[8:1],5x,6x,{8}7h[16:1],{12}3x,3,3,6,6,6,
2,2,2,7,7,7,{16}3/E5,2,,8b,,3/E5,{8}2,
8b,{16}6,5,3,4,6/E5,7,,1b,,6/E5,{8}7,{16}1,8,
1,2,{8}1,{16}6/E5,7,,1b,,6/E5,{8}7,{16}3x,1,2,4,
3,5,2,1,8,6,5,4,1,2,3,6,5,4,{8}3,
{16}6/E5/B4,7,,1b,,6/E5/B4,{8}7,1b,{16}3,4,6,5,3/E5/B5,2,
,8b,,3/E5/B5,{8}2,{16}8,1,8,7,{8}8,{16}3/E5/B5,2,,8b,
,3/E5/B5,{8}2,{16}6,8,7,5,6,4,7,8,1,3,4,5,
8,7,6,3,4,5,{8}6,2h[4:1]/6h[4:1],{16},,,,4,5,
3h[16:3],,,2h[16:3],,,{8}4h[8:3],{16},,,,5,6,{8}7h[16:3],
{16},5h[16:3],,,{4}8h[8:3],{8},6,{16}6h[16:3]/7h[8:1],,,5h[8:1],
,,{8}4h[8:1],{16},3h[8:1],,,2h[8:1],,,1h[8:1],,,{8}2,
2/6,{16}1,5,2,6,3,3h[8:1],,7,,8,5,1,4,8,
3h[16:1],7,,4/6,,5,{8}5h[8:1],{16}4,5,4,3,4,2,4,1,
{8}C,{16}5,1,6,2,7,7h[8:1],,3,,4,1,5,8,4,
7h[16:1],3,,8/2,,1,{8}1h[8:1],{16}8,1,8,7,8,6,8,5,
{8}C,{16}2,8,{8}1,3/7,{16}6,4,{8}5,3/7,{16}2,1,
{8}8,{16}5,4,3,2,1,8,7h[16:5],1,2,3,,,4,7,
3,6,2,5,1,2,3,4,5,6,7,5,8,6,1,7,
2h[16:3],,,4h[16:3],,,{8}6h[16:3],{16},8h[16:3],,,{8}2h[8:1],{16}4,3,
1,2,7,8,7,6,5,4,1h[16:3],,,7h[16:3],,,{8}5h[16:3],
{16},3h[16:3],,,{8}1h[8:1],{16}7,8,6,5,1,2,8,7,6,5,
E2/D2,,,D6/E6,,,2,3,D8/E8,,,E4/D4,,,8,1,
{8}7,{16}6,3,5,2,4,1,3,3,2,2,,,{8}4/1,
2/5,{16}6h[16:1],3,5,4,5,4,{24}6,4x,5x,4x,5x,4x,{12}6,4,5,
{8}4,{16}7h[16:1],2,8,1,8,1,{24}7,1x,8x,1x,8x,1x,{12}7,1,8,
{16}3,4,3,5,4,5,3,5,4,6,5,6,3,4,2,5,
4,6,4,5,3,6,5,7,2,3,4,3,4,5,3,4,
5,4,5,6,{4}7h[16:3],{16}1,8,2,7,6,8,4,5,
3,1,2,8,3,4,2,5,8,7,8,1,2,1,4,5,
4,3,4,6,4,2,4,8,8,1,7,2,3,1,5,4,
6,8,7,1,6,5,7,4,1,2,1,8,7,8,5,4,
5,6,5,3,5,7,5,2,5,5,{8}C,{16}5,4,6,5,
8,8,,5,6,4,7,8,1,2,1,8,,E6,,2,
4,3,5,5,4,6,5,7,6,6,8,8,,4,5,3,
1,2,1,8,7,8,6,6,5,5,4,4,1,3,2,4,
3,5,4,6,5,7,6,8,2,5,3,6,4,7,5,8,
3,5,4,6,3x,4,3,4,5,6,2x,3,2,3,4,5,
1x,2,1,2,3,4,E1,E8,E7,E6,E5,E4,1x,2x,8x,3x,
,7h[16:1],{8}5,4,3,8,{16}3h[16:1],5,,4h[16:1],6,7,
8,1,{8}2,{16}5/3,6,7,8,{8}1,{16}2/4,5,6,7,8,1,
3h[8:1],,,1h[8:1],,,{8}7h[8:1],{16},4h[8:1],,,2h[8:1]/D7/D6/A6,,,8h[8:1]/D5/D4/A4,
,,{8}6h[8:1]/D2/D3/A2,{16},4h[8:1]/A8/D8/D1,,,{2}Ch[8:1],
{8}6/3,{24}4,5,4,5,4,5,4,5,4,{4}C,1b,
{16},,1,8,{24}1,8,1,8,1,8,{16}1,7,2,6,{12}3,5,4,
{4}5,3/6h[4:1],{8},7/4h[8:1],{12}6,3/5,4/2,
{16}1,7,8,6,4,5,3,4,{8}2,3,{4}4/8h[2:1],
{12}2,3,4,5,{24},{8}6,{4}5/1h[2:1],{12}7,6,5,
{16}4,2,5,3,{8}6,7,{16}1,8,{8}2h[8:1],4h[8:1],6h[8:1],
8h[8:1],{16}1,7,2,8,3,1,4,5,6,5,{8}1h[8:1],{16}8,2,
7,1,6,8,5,4,3,4,{8}8h[8:1],{16}1,2,{8}3,3h[8:1],
{16}5,4,5,6,{8}7,{16}1,8,2,4,3,5,7,6,8,7,
1,2,3,4,8,1,2,3,7,8,1,2,{8}3/7,{16}6,5,
7,1,8,2,4,3,6,5,{8}7/4,{16}3,4,2,8,1,7,
5,6,3,4,{8}2/5,{24}6,5,4,3,2,1,7,6,5,4,3,2,8,7,6,
{8}5/1,{16}2,4,3,5,{8}6/A2,7/A3,8/A4,C,{16}1,5,
2,4,3,6,4,5,7,6,{8}5/8,{16}6,2,5,3,4,1,
5,4,2,3,{8}1/4,{16}6,8,7,4,6,5,4,3,5,2,
1,3,8,1,E8,5,6,E2,4,3,E1,5,7,C,4,2,
E7/B6,5,5,E3/B3,4,4,E1/B8,5,5,E1/B1,4,4,{12}6,5,4,
5/6h[6:1],4,3,5/7h[6:1],4,3,5/8h[6:1],3,1,3,4,5,
4/3h[6:1],5,6,4/2h[6:1],5,6,4/1h[6:1],6,8,{48}4h[8:1],,,1x,,,{16}2x,3h[8:1],
8x,1x,2h[8:1],7x,8x,1h[8:1],6x,7x,{4}4/8h[4:1],{16}5,4,3,2,
3,2,1,8,{32}1,8,7,6,5,4,3,2,{2}Cf/1b-5[4:9],
E
