&title=脱法ロック
&artist=Neru
&first=0.13
&des=Okiru
&lv_5=14
&inote_5=(155)
{4},,8h[2:1],,
{8}2-5[8:1],,6-2[8:1],,B8,,,2x-6[8:1],,B8,,2x-6[8:1],,B4,,,
{8}7-4[8:1],,3-7[8:1],,B1,,,7x-3[8:1],,B1,,7x-3[8:1],,B5,,,
{4}
1-3[8:1],7-1[8:1],5-7[8:1],3-5[8:1],
8-6[8:1],2-8[8:1],4-2[8:1],6-4[8:1],
{8}8,1,2,3,4,{16}7,8,5,4,1,,{8}3b/7b,1b/5b,,6,5,4,3,2,
{8}1-7[8:1]/5,2,1/5-3[8:1],6,1-7[8:1]/5,2,1/5V37[4:1],6,2/5,1,8>4[4:1],,4,5,6,7,
8-2[8:1]/4,7,8/4-6[8:1],3,8-2[8:1]/4,7,8/4V62[4:1],3,8/4,7,8h[8:1],,1b/7b,2b/6b,3b/5b,,
{8}2-8[8:1]/6,8,2-4[8:1]/6,4,2-8[8:1]/6,8,2V48[4:1]/6,4,2/7,6,5<1[4:1],,1,2,3,4,
{8}7-1[8:1]/3,1,7-5[8:1]/3,5,7-1[8:1]/3,1,7V51[4:1]/3,5,7/3,2,3h[8:1],,2b-4[8:1]/4b-6[8:1],,,,
{8}7/3,5,6/4,5,3h[16:3],{16},4,E3,,5h[8:2],,,,3,,E1/B7,,6h[8:2],,,,4,,C/E2,,5,,
{8}2h[8:1]/6h[8:1],,7h[8:1]/3h[8:1],,5h[16:3],{16},4,5,,3/6,,,,5/6,,4/5,,3h[8:2]/4,,,,6,,4,4,5,,
{8}2/6,4,3/5,4,6h[16:3],{16},5,E7,,4h[8:2],,,,6,,E1/B2,,3h[8:2],,,,5,,C/E8,,4,,
{8}
2-5[8:1]/7-4[8:1],,27,,36,{16}1-5[8:1],5,2,7,{8}1,,46,46,,2/6,{16}8,4,7,3,6,,{8}7/8,5>1[4:1]/6p8[4:1],,,,,,1-3[8:1]/8-4[8:1],,1-5[8:1]/8-6[8:1],,18,,4,3,2,{16}1q5[8:1],,,6,6,,7,,8p4[8:1],,,3,3,,2,,,,
{24}2/6,,,5,3,6,4,,,4-1[8:1]*-7[8:1],6,3,5,,,4bx,,,
{8},2/1,4<8[4:1]/3q1[4:1],,,,,,
8-6[8:1]/1-5[8:1],,8-4[8:1]/1-3[8:1],,81,,{16}3,3,{8}5-2[8:1],6,7/5,8,1-6[8:1],2,3/1,4<3[8:3],{16}6,6,{8}4,,,{16}Cf/B1/B8,,,,,,{8}3,5,2,
{32}2/6,1,8,7,,,
{16},{32}2/6,1,8,7,,,
{16},{32}2/6,1,8,7,,,
{16},{32}2/1-6[8:1],,,,
{16}6-1[8:1]/5,,2/1,,5,,2-5[8:1],,6/5-2[8:1],,12,,6,,,,7,,
{32}7/3,8,1,2,,,
{16},{32}7/3,8,1,2,,,
{16},{32}7/3,8,1,2,,,
{16},{32}7/8-3[8:1],,,,
{16}3-8[8:1]/4,,7/8,,4,,7-4[8:1],,3/4-7[8:1],,87,,3,,,,2,,
{32}2b/5,1,8,7,,,
{16},{32}2b/5,1,8,7,,,
{16},{32}2b/5,1,8,7,,,
{16},{32}1-4[8:1]/8-5[8:1],,,,
{16}4-1[8:1]/5-8[8:1],,18,,,,,,4-1[8:1]/5-8[8:1],,18,,4/5pp8[8:3],,,,3,,
{8}2,1,3b,{16}6,1,7,4,{16}6-1[8:1],8,7,5,6,,,,2/7,,3,6,5,8,2v5[8:1],7,4,1,2b,,,,
{32}7/E4,8,1,2,,,
{16},{32}7/E4,8,1,2,,,
{16},{32}7/E4,8,1,2,,,
{16},{32}7/3-8[8:1],,,,
{16}8-3[8:1]/4,,7/3,,4,,7-4[8:1],,8/4-7[8:1],,3/7,,8,,,,2,,
{32}2/E5,1,8,7,,,
{16},{32}2/E5,1,8,7,,,
{16},{32}2/E5,1,8,7,,,
{16},{32}2/6-1[8:1],,,,
{16}1-6[8:1]/5,,2/6,,5,,2-5[8:1],,1/5-2[8:1],,6/2,,1,,,,7,,
{32}7b/C,8,1,2,,,
{16},{32}7b/C,8,1,2,,,
{16},{32}7b/C,8,1,2,,,,,
{8}4-1[8:1]/8-5[8:1],
{16}5-8[8:1]/1-4[8:1],,8/4,,,,,,5-8[8:1]/1-4[8:1],,8/4,,5/1pp4[8:3],,,,7,,
{16}6,,5,,7b,{16},3,8,2,5,{16}3-8[8:1],1,2,4,3,,,,7/2,,6,3,4,1,7v4[8:1],2
,5,8,7b,,,,
{4}E2/E8,B2/B7,B6/B3,E4/E6,{8}1b/8b,4b/5b,,,1b/8b,4b/5b,,,
{4}E4/E6,B3/B6,B7/B2,E2/E8,{8}4b/5b,1b/8b,,,4b/5b,1b/8b,,,
{8}4h[8:1]/2h[8:2],,4h[8:1],,4h[8:1]/6h[8:2],,4h[8:1],,
4h[8:1]/1h[8:2],,4h[8:1],,4h[8:1]/7h[8:2],,4h[8:1],,
18,65,21,45,{16}7,1,5,3,{16}7,1,{8}5bw1[8:1],,,,,1s5[8:1]/8z4[8:1],,,,
{32}3^6[8:1]/7,8,1,2,,,
{16},{32}3-7[8:1]/7,8,1,2,,,
{16},{32}7/3,8,1,2,,,,,
{8}6/2-7[8:1],7-1[8:1]/3,6/2,3,6-3[8:1],3-5[8:1]/7,2/6,7,,2,
{32}6^3[8:1]/2,1,8,7,,,
{16},{32}6-2[8:1]/2,1,8,7,,,
{16},{32}2/6,1,8,7,,,,,
{8}3/7-2[8:1],2-8[8:1]/6,3/7,6,3-6[8:1],6-4[8:1]/2,7/3,2,,7,
{32}7b/3b,8/4,1/5,2/6,,,
{16},{32}7b/3b,8/4,1/5,2/6,,,
{16},{32}7b/3b,8/4,1/5,2/6,,,,,
{8}7-2[8:1]/3-6[8:1],2-7[8:1]/6-3[8:1],37,,,
2-7[8:1]/6-3[8:1],3/7,2/6,,3/7,
{8}26,37,4b/6b,{16}5,5,5,5,{16}5w1[8:1],5,5,5,5,,,,3b/7b,,2,8,4,6,{32}8,1,2,3,4,5,6,7,{16}8b/4bx,,,,
{16}1bx/5h[16:2]`B1,,,7bx/3h[16:2]`B7,,,2bx/6h[16:2]`B2,,,8bx/4h[16:2]`B8,,,Cf/B7/B6/B3/B2,,,,
{8},,,,8b/2b,4b/6b,,,
{16}7/3-5[12:1],,6,6,3-1[12:1],,1,1,3-5[12:1],,5,5,3,,7,7,{32}1,2,3,4,5,6,7,8,
{8}1xpp5[8:3]/5x,,{16}7,,7,6,5,,8,7,
6-4[12:1],,3,3,6-8[12:1],,8,8,6-4[12:1],,4,4,6,,2,2,
{16}5,3,7,5,1,3,7,1,
{8}5,3b/7b,1b/5b
,,
{16}8-2[12:1],,2,7,8-6[12:1],,6,1,8-2[12:1],,2,7,8,,6,1,{32}8,7,6,5,4,3,2,1,
{8}8xqq4[8:3]/4x,,{16}4,,4,3,2,,3,2,
{16}1-7[12:1],,7,2,1-3[12:1],,3,8,1-7[12:1],,7,2,1,,3,8,
{16}1,1,7,7,5,5,3,3,
{24}8b,1,2,6b,5,4,1b,2,3,7b,6,5,{8}
8,8,B5,,B3,,B7,,4,4,4w8[4:1],,Cf,,,,,,,,,,,,
