&title=girls.exe
&artist=Rintaro Soma
&first=0
&lv_5=14+
&des_5=miaow
&inote_5=
(188){4},,,,,,,,{1}B5/B4,
B8/B1,
B7/B6,
B2/B3,
B1/B2/5<5[2:7],
B7/B8,
4-8[2:3],
C,
3>3[2:7],
B7/B6,
B2/B3,
C,
{16}3,7,3,7,3,7,3,7,3,7,3,7,3,7,3,7,
2,8,2,8,2,8,2,8,2,8,2,8,2,8,2,8,
{24}1x,2x,3x,4x,5x,6x,1x,2x,3x,4x,5x,6x,1x,2x,3x,4x,5x,6x,1x,2x,3x,4x,5x,6x,
1,8,7,6,,,1,2,3,4,,,1,8,7,6,{96},,,,,,,,{32}8,1,2,3,4,5,6,7,
{1}8/4,
{8},,,,4h[16:1],4h[16:1],5h[16:1],5h[16:1],
5/4,5/4,3,3h[8:1],{16}4,5,6,7,{8}4h[8:1],5,
5,{16}6,4,{8}5,3,{16}1,2,{8}8,5,{16}5,6,
4,5,3,4,{8}2,5/2,{16}6/3,3,{8}7,3,{16}6,2,
{8}5,1,{16}2,7,,3,{8}6,{16}4,5,{4}4v7[16:1]*v1[16:1],
4b,{16}8,8,8,8,{4}8h[8:1],{8}3,{16}5,4,
{8}6,{16}3,3,7,7,1,1,{8}5,5,5,3,
{16}4,6,{8}5,{16}6,5,4,3,7,6,5,4,8,7,6,5,
{4}4-8[8:7],{16}3,,,6,,,{8}3,{16},4-8[16:1],,,5,
,,1,2,3,{8}4,{24}6,5,6,5,{48},,,,{16}7,6,5,2,
{8}2,4,{16}3,5,{8}4,{16}6,3,5,3,{8}5,4,
6,{16}6,5,{8}7,3,4/5,3/6,2/7,1/8,
{16}4,5,4,5,3,5,4,6,4,5,3,5,{4}4h[8:1],
3/5h[4:1],1h[4:1],{8}6h[16:1],6h[16:1],6,4,
{16}5,3,{8}4,2,{16}8,2,8<4[4:1],1,7,1,{4}8,
2,{16}3,4,3,4,2,5,2,5,1,6,1,6,
8,7,8,7,{24}8,1,2,4/3,5,6,{16}7,3,{8}3,{16},5,{8}5,
3-1[16:1],4,5,6-8[16:1],5,4,3-1[16:1],4,
5,6-8[16:1],5,4,2-6[16:1],3,{4}4/2b,
{8}7-5[16:1],8,1,2-4[16:1],1,8,7-5[16:1],8,
1,2-4[16:1],1,8,6-2[16:1],5,{4}4/6b,
{8}1>4[16:1],8,7,6<1[16:1],5,4,3<6[16:1],2,
1,8>3[16:1],7,6,5-1[16:1],4,3,2,
1,8,{16}5,6,4,7,5,8,1,7,2,8,4,5,
3,6,4,6,5,4,3,2,{24}1/4,3,2,1,8,7,6,5,4,3,2,1,
{8}8/4,4,{16}3,4,{8}2,4,{16}5,4,{8}6,4,
{16}3,4,{8}2,4,{16}5,4,{8}6,{16}3,4,{8}2,{16}4,2,
{8}8/1,8/1,6,{16}6,5,{8}6,6,{16}6,7,{8}6,
6,{16}6,5,{8}6,6,5/6,5/4,4/3,3,
3/5,{16}4,4,{8}4,7/5,{16}6,6,{8}6,3/1,{16}2,2,
{8}2,8/6,{16}7,7,{8}7,5/3,{16}4,4,{8}4,{16}6/3,5,
4,3,2,1,8,7,6,5,{32}3,4,5,6,7,8,1,2,{8}3/5,3h[8:3]/5h[8:3],
,,,,6/3,8/1,2/7-4[16:1],1/8,
{16}1/7,2,{8}3,{16}1/5h[8:1],2,{8}3,{16}2/6h[8:1],3,{8}4,{16}3/7h[8:1],4,{8}5,
{16}2/8-6[16:1],3,{8}4,{16}2/8-2[16:1],3,{8}4,{16}3/8-6[16:1],4,{8}5,{16}8/3,4,{8}5,
{16}7/4h[8:1],6,{8}5,{16}7/3h[8:1],6,{8}5,{16}8/2h[8:1],7,{8}6,{16}8/1-7[16:1],7,{8}6,
{16}7/1-3[16:1],6,{8}5,{16}6/1-7[16:1],5,{8}4,{16}1/6,5,{8}4,{16}1/6,5/2,{8}3/4,
4/3,1/6,{16}7/8,6,{8}5,{16}2,1,{8}8,{16}7,6,{8}5,
{16}3/5h[16:15],2,{8}1,{16}3,2,{8}1,{16}2,1,{8}8,{16}1,8,{8}7,
{16}8/4h[16:15],1,{8}2,{16}8,7,{8}6,{16}8,1,{8}2,{16}8,7,{8}6,
{24}8/4,1/5,2/6,3/7,,,8/4,3/7,2/6,1-4[16:1]/5-8[16:1],,,{8}4/8,5/1,,8/4,
{16}8/4h[8:1],1,{8}2,{16}8/4h[8:1],7,{8}6,{16}8/4h[8:1],1,{8}2,{16}8-2[16:1],7,{8}6,
{16}4/8-6[16:1],5,{8}6,{16}4/8-2[16:1],3,{8}2,{16}4/8-6[16:1],5,{8}6,{16}4/8,3,{8}2,
{16}5,3,5,2,4,2,6,4,6,3,5,3,7,5,7,4,
{32}3/5-1[16:1],2,1,8,7,6,5,4,{4}3,{16}2/5,3,4,5,3/6,4,5,6,
4b/7b,,,7b/5b,,,{8}1b/2b,{16}5,3,{8}4,{16}6b/5b,,,7b/8b,
,,{8}2b/1b,{24}7,6,5,4,3,2,{4}1/8h[8:1],{16}4,5,4,5,
4b/6b,,,7b/1b,,,{8}6b/2b,{16},5b/3b,,,4,4,4,4,
{8}3/5,6/2,7/1,8,{16}1b-5b[4:11],1b,1b,1b,1b,1b,1b,1b,
{1}1b,
{4},,,,,,,7<7[1:3],
,,,,,,{2}E3/B4/B3h[16:3],
{4},,,,,1>1[1:3],
,,,,,,{1}B6/B5/E6h[16:3],
{8},,6,6,,7,,Ch[8:27]/7>7[8:25],
{1},,,,,{8},4h[1:3]/5h[1:3],
{1},,,{4}1-5[16:1]/8-4[16:1],
1/8/B7/B2/Cf,{8}6/3,{16}7,8,
{8}7,1,6/2,3,4,{16}6-2[16:1],4,{8}5,8,
7,{16}3,4,{8}3,6/5,6/5,{16}2,8,{8}1,{16}2,4,
{8}3,{16}6,4,{8}5,2/7,{16}1,8,{8}1,8,{16}5,7,
4,6,3,5,{8}2/4,{16}6/3,4,{8}5,4-8[16:1],{16}3,2,{8}4,
3,1,8,{16}3,7,2,8,{8}1,{16}1,7,7,3,
{4}5/3,3/6,{8}2/7,{16}1,8,{32},,8/1,7/2,6/3,5/4,{96},,,,,,{48}E1,
E2,E3,E4,E5,E6,E7,E8,,,,,,,,,,,{16}4,6,3,7,2,8,{24}1,2,3,8/4,7,6,
5/2,3,4,5/7,6,5,{16}4/1,2,3/7,6,5/8,1,2/6,5,4/7,8,1,2,
3/4,5,6,7,{32}8,7,6,5,4,3,2,1,{8}8,6/5,7,{16}1,8,
2,7,1,8,{8}1,2,3,{16}5,4,{8}5,5,
5h[8:3],,,4-8[8:11],,,,,,,,,{2}4w8[0.4787##0.1596],
{32},,,,,7/1,6/2,5/3,4,5,6,7,8,1,2,3,4-8[16:1],5,6,7,8,1,2,3,{4}4b,
{32}6b/B1/B2,5,{16}4,{32},,,,,,3b/B7/B8,4,{8}5,{32},,,,7b/B3/B4,6,{16}5,,,6/3,4,
5,6,7,8,1/6,5,4,3,2,1,3/8,4,5,6,7,8,
1,2,3,6,7,8,1,2,3,1/4,2,3,{24}4/8,7,6,2/5,3,4,
5/1,8,7,6/2,3,4,5/8,7,6,5/1,2,3,{32}7/8,6,5,4,,,,,1/2,3,4,5,,,,,5,
4,3,2,1,8,7,6,5,4,3,2,{8}1,{16}6,5,6,5,6,5,6,5,
6,5,6,5,6,4,6,4,6,4,6,4,6,4,6,4,
6,3,6,3,6,3,6,3,6,3,6,3,6,2,6,2,
6,2,6,2,6,1,6,1,6,1,6,1,{32}6w2[16:1],5,4,3,2,1,8,7,
{4}6,{16}8/3,7/4,{8}5/6,,4/5<8[16:1],{4}4h[4:1],
{16},,8,7,1,2,7,6,2,3,6,5,3,4,{8}5b/6b,
{16},2b,1,2,7b,8,{8}7,5b/3b,{32}4b/2b,3,2,1,8,7,6,5,{8}4b/1h[4:1],
3b,{24}3b,4,5,{32}6/3bh,7/4b,5b/8,6b,7b,8b,1b,2b,{8}3b,{24}7,6,7,6,7,6,7,6,7,
6,7,6,7,6,7,6-1[16:1],7,6,7,6,7,{2}6bh,
{24},,,,,,,,,2h/1h,3/8,7/4,{4}6/5,{24}5,3,5,4,5,4,
{8}5,{24}8,7,6,{16}3,5,3,5,{24}2,4,2,4,{48},,,,{16}2,1,{8}2,
8,7,6,{24}5,6,5,{8}6,{24}4,5,4,{8}5,{24}3,4,3,
{16}4,2,7,6,5/8,4/7,6,5,4,3,{8}2,7,8,
{24}7h/8h,6/1,5/2,3/4,,,,,,5,3,4,{8}3,{24}7,5,6,{8}5,8/1,
2/7,3/6,{16}4/5,6,7,8,1,2,3,4,{8}5/6,{16}7,8,
{32}7,1,2,3,4,5,,,{16}8/5,7,6,5,{32}2,3,4,5,{8}7,{24}1,8,1,8,1,8,
1,2,3,8/4h[24:1],7,6,{32}5bh,4b,3b,2b,4b/1b,8/3b,7/2b,1b/6,{8}5/8b-4b[0.4787##0.1596],,,8p3[4:11]/4p7[4:11],
{1},,,{16}1,
8,2>8[8:1],7,3,6,{8}A2,
E
