&title=雅俗共赏
&artist=许嵩
&first=0
&des_5=HeYyin
&lv_5=13
&des=HeYyin
&inote_5=(69)
{2},{8},,,{64}1,8,1,,,,,,
{8}8/1h[8:3],8,8,7,7/2h[8:3],7,7,7,6/3h[8:4],6,6q3[4:1],6,6,,,,
{8}1/8-6[8:1],1,1,2,2/7-5[8:1],2,2,3,3/6pp3[3:1],3,3,4,4,4>1b[8:1]*^7b[8:1],4,,
{16},,7h[8:1],,1pp2[6:1],,,7,1,,7,7h[16:3],,,,,2qq7[4:1],,7,7,,,6>7[4:1],,6h[4:1],,,,,,,,
{16},,4h[8:1],,6pp7[6:1],,,5,6,,3,,4>7[4:1],4,,,7>4[4:1],,5,5,,6,,7qq4[4:1],,,,,,,,,,,
{16}3h[4:1],,4h[4:1],,,2,2p7[4:1],,,{16}6-3[8:1],6,6,,,,,1,1qq5[4:1],,2h[16:7],,1,,
,,,,,,,,,2^7[8:1],,7^2[8:1],,2,,6p3[4:3],,6q2b[4:1],,,,,,,,,,,,,,,,,,
{16}6-8[8:1]/5-1[8:1],,47,47,,,,,1-5[8:1]/2-4[8:1],,38,38,,,,,6p4[16:3],,4,4V68[6:1],,,3,3,,4h[16:5],,7h[16:3],,,,,5pp6[8:1]*qq4[8:1],,37,37,,,,,3qq5[6:1],,35,26,,,,,7h[8:1],,4,7h[16:3],,,4>8[8:1],,8,,6,,4-7[8:1],,1-5[8:1],,4,,1,,8v3[8:1],,5-1[8:1],,8,,5,,7h[4:2],,,,,,,,
{24}8b-3[16:1],,4,8-5[16:1],,4,8b,,,8b,,,1>5[8:1],,1,5<1b[8:1],,,B6/E6/B5,,,,,,6v3[16:1],,6,4-1[16:1],,4,6b,,,4b,,,7,,7,2-5[16:1]/8p4[16:1],,,2hb[8:1]/8hb[8:1],,,,,,4-1[16:1],,6,5-8[16:1],,,4,,,5,,,1-5[16:1],,1,28,,28,,,7,4,,4,6,,6,5,,5,4,,4pp1[24:4],3,,3h[24:13],,,,,,,,,,,,,
{24}1b-6[16:1],,5,1-4[16:1],,5,1b,,,1b,,,8<4[8:1],,8,4>8b[8:1],,,B3/E4/B4,,,,,,3p6[16:1],,3,5-8[16:1],,5,3b,,,5b,,,2,,2,7p3[16:1]/1q5[16:1],,,7hb[8:1]/1hb[8:1],,,,,,5-8[16:1],,6,4-1[16:1],,3,5,,,4,,,8-5[16:1],,8,71,,71,,,,4,,4,6h[8:1],,,5,,5,4,,4,3,,3,
{8}1,1,1^4[8:1],1^6[8:1],1x-5[8:1],1x-6[8:1],1x-4[8:1],1x,1x,
{24}7,,7,5,,5,4,,4,2,,,4qq1[6:1]/5-7[16:1],,,27,,,45,,,
{64}8bx,,,,,,,,8bxw4[16:1]*w4[16:1],,,,,,,,8bx,,,,,,,,,,,,,,,,{24}6,,6,4,,4,5,,5,3,,3,
{64}7b,B7f,,,,,,,1b,B1f,,,,,,,8b,B8f,,,,,,,2b,B2f,,,,,,,
{8}1-5b[16:1],7-3b[16:1],1,7,4w8b[16:1],8w4b[16:1],B4,B8,2b/6b,{24},
{12}87,1b/5,28,67,4b/5,,47,
{24}1/8b,,2/6q3[12:1],,34,,{24}5h[4:1]/6b,,,,,,{48}3x-7b[16:1],5x,3x,5x,3x,5x,3x,5x,3x,5x,3x,5x,
{64}3bx,B3,Cf,B7,,,,,,,,,,,,,{4},
{64}7bx-5-2b[12:1]/3bx,2x/6x,1x/5x,4x/8x,,,,,{24}1-4[16:1],,,7b,,,1b,,,
{24}8>8[8:1]*<8[8:1],,8,4,,,8,,,,,,2q6[16:1],,4,7p3[16:1],,5,2b,,,7b,,,1qq4[8:1]*pp6[8:1],,1,28,,,1,,,,,,
{24}3v8[16:1],,6,5<1b[16:1],,,3,,,5,,,2pp4[16:1],,2,38,,38,,,7,5,,5,6,,6,4,,4,5pp1<4b[48:13],,5,3,,3h[24:7],,,,,,,A4f,,,,,
{24}5,6-3[16:1],,2,1s5b[12:1],,5,6b,,,1b,,,7,,7,8-3[16:1]/5-2[16:1],,,5hb[8:1]/8hb[8:1],,,,,,1-4[16:1],,1,5-7-4-2b[8:1],,5,1b,,,5b,,,2qq5[8:1]*qq6[8:1],,2,83,,,2,,,,,,
2-6b[16:1]/5,,3,4,,,8hb[8:1]/2bx,,5,7,,4,6pp3[8:1],,3,25,,25,,,,2,,2,8,,8,6,,6,4,,4,15,,1pp1[12:1]/5pp5[12:1],,,,,,,C,,,7,,7,1,,1,3,,3,5,,5,84,,8qq8[12:1]/4qq4[12:1],,,,,,,C,,,4xz8>4[6:1]/5xs1<5[6:1],,36,36,,,,,,,,,,,,
{8}2x-5b[16:1]/3,1,8x-3b[16:1]/2,7,6x-1[16:1]/8,5,4x-7[16:1]/6,3,
{24}2xz6[8:1]/4x,,,1,,8,2x/7xs3[8:1],,,8,,1,2x/7x,,,,,,,,,,,,2xqq7b[4:7]/5xq4b[4:7],,,,,,,,,,,,,,,,,,,,,,,,,,,,,,,,,,,,,,,,,,,,,,,,,,,,,,E
