&title=Rotter Tarmination
&artist=Sampling Master MEGA
&first=-0.02
&lv_5=14
&des_5=kaminski
&inote_5=
(200){4},{8},,8h[8:1],6h[8:1],4h[8:1],2h[8:1],
8-4b[8:1],8,,6-2[8:1],2,6,,4-8[8:1],
8,4,{16},,,,2-6[8:1],2,2,2,{4}2,
{8}8h[8:1]/4h[8:1],,,6-2[8:1],6h[8:1],,,4p8[8:1],
4,4,,5/6h[2:1],{16}4,3,2,1,8,7,,,{8}4-7[8:1],
4h[8:1],,,3-8[8:1],3h[8:1],,,1-6[8:1],
1h[8:1],{16},,,,1,2,3,4,5,6,7,8,
{8}1b/5-1[8:1],5h[8:1],,,4-8[8:1],4h[8:1],{16},,,,4,
5,{8}4,3/6,{16}4,4,{8}4,2/6,{4}8bv5[2:1]*v3[2:3],
{8},,,,,,,,,,,,,,,,8-6[8:1],
4h[16:1],8,5h[16:1],8-6[8:1],3h[16:1],8,4h[16:1],
8-6[8:1],5h[16:1],8,4h[16:1],8<5[8:1],4h[16:1],{4}8,
{8}1,2,3,4,5,6,7,8/1,
{4}2-5[8:1],{8}7-4[8:1],7,,2,{4}2b,
{8}1-3[8:1],5h[16:1],1,4h[16:1],1-4[8:1],6h[16:1],1,5h[16:1],
1-3[8:1],4h[16:1],1,5h[16:1],1>4[8:1],5h[16:1],{4}1,
{8}8b,7,6,5,4,3,2,8/1,
{4}7b-4[8:1],{8}2-5[8:1],2b,,7,{4}7b,
1>5[4:1],5<1[4:1],1q6[4:1],6q2[4:1],
2>6[4:1],6<2[4:1],2-6[4:1],6,
{8},3>1[8:1]*-6[8:1],{4}3,{8},8-5[8:1]*-3[8:1],{4}8,
{8},4s8[8:1],{4}4,{8},1p5[8:1]*q5[8:1],{4}1,
{8},8-3[4:1],,3-6[4:1],,6-1[4:1],,1-4[4:1],
,4-7[4:1],,7-2[4:1],,2-4[4:1],,4,
,7-3[8:1],{4}7,{8},8-4[8:1]*-2[8:1],{4}8,
{8},1-5[8:1]*-7[8:1],{4}1,{8},2,{4}2b,
{8}3-1[8:1],7,3-5[8:1],7,3-8[8:1],7,3-5[8:1],7,
3-1[8:1],7,3-5[8:1],7,3>8[8:1],7,{4}3,
{16}6h[8:1],,,3,4,3/5,6,3,4,3/5,6,3,4,3/5,6,3,
{4}4-8[4:1],{8}8V64[4:1],8,,1,{4}1,
5b/1-4[8:1],5/1-7<6[8:1],5/1-4[8:1],5/1-7<6[8:1],
5/1>3[8:1],{8}5/1<7[8:1],7,1,5h[8:1],{16},,,,4,
2h[8:1],{8}4,4,{16}4,8h[8:1],{8}4,4,{16}4,6h[8:1],{8}4,
{4}4b>6[2:1],{8}6,6b,,5,{4}5b,
{16}4,4,{8}4,{16}5,5,{8}5,{16}3,4,{8}3,{16}6,5,{8}6,
{16}3,4,{8}2,{16}6,5,7,1,2,3,4,8,7,6,{8}5,
1-6[8:1]/2-5[8:1],B7/B4,,,8-4[8:1],B7/B5,,,2v5[8:1]*>5[8:1],
B8/B7,,,7-3[8:1]/6-4[8:1],C/A5,,,,8/2-5[8:1],
,2/8-4[8:1],,8/3-1[8:1],,3/7-5[8:1],
6,7/8-4[8:1],3,8/2-5[8:1],1,2/7,4,8h[8:1],
{16},,8,7,6,5,4,3,2,1,8,7,6h,5h,4h,3h,
{8}7b-1-5[2:1]/2b-8-4[2:1],,,,,,,3-8[8:1],
8-2-5[4:1],3,7<4[8:1],7,{4}7,{8}8,2,
1-4[8:1],2-5[8:1],1-6[8:1],2v7[8:1],1,2,4,2-5-3-8[8:3],
6,6,{4}6,{8}5,6,7,8b-2[8:1],
,7b-3[8:1],,6b-4[8:1],,6b,,2v5[8:1],
5-3-8[8:1],2,6<8[8:1],6,{4}6,{8}1,1-3[8:1],
1-7[8:1],1-4[8:1],1-6[8:1],1-5[8:1],1,1b,,7-5[8:1],
5-8[8:1],7,2-4[8:1],2h[8:1],,1,1-5[8:1],5bw1[2:1],
,,,,,,,,4,
4-6[8:1]*-2[8:1],,4-8[8:1],,4x,{4}1-3[8:1],
1/7b-5[8:1],7/1b,{16}1,2,3,4,5,6,7,8,
{8}1/5,5<7[8:1]*>3[8:1],,5-1[8:1],,5x,{4}6-8[8:1],
A6/3bx-1[8:1],A3/6bx-8[8:1],A6/3bx-1[8:1],6bx/A3,
{8}5,5V31[4:1],,1-5[8:1],,B8,{4}B6,
1bx-5[8:1]/8bx-6[8:1],8bx-4[8:1]/1bx-3[8:1],8b-6[8:1]/1b-5[8:1],1b/8b,
{8}7,7-4[8:1],4-6-1[8:1],7,1,2,{16}2x,3x,4x,5x,
{1}6x-2[2:1],
{8}2v5[8:1],3/5,2,7,6-1[8:1],4h[16:1],6,2,
2-5[8:1],3/4,2,8,8-4[8:1],5h[16:1],8,2,
2-6[8:1],5/3,2,5,5q1[8:1],4h[16:1],{4}5,
6b,8b-4[8:1],1b-5[8:1],3b,
{8}6,6-3[8:1],4,6,8,8-5[8:1],{16}5,5,{8}8,
3,3-7[8:1],6,3,1,1-4[8:1],{16}4,4,{8}1,
5,5,5,5,5/B2,5,5/C,5,
4/5,4/5,3/6,3/6,{16}3,3,5,5,7,7,1,1,
{4}5h[1:1],3h[16:1],{16}4,,,3,{4}3,
{8}3b,4b,{4}5bh[4:1],{8}4b,,,4h[16:1],
4-1[8:1],7,{4}4b,{8},7h[16:1],7-4[8:1],2,
7b,,,6h[16:1],{4}6-3[8:1],{8}1h[16:1],1-4[8:1],
,8h[16:1],{4}8-4[8:1],8b/4b,{8}3,3,
3h[16:1],3-6[8:1],B8/B1,3b,,,7h[16:1],7-2[8:1],
B5/B4,7b,,,5h[16:1],5-7[8:1],,1h[16:1],
{4}1-4[8:1],{8}8h[16:1],8-3[8:1],,5bx,5b,5b,
4h[16:1],4-2[8:1],{4}Ch[8:1],{8},6h[16:1],6V82[8:1],Ch[8:1],
{16},,,,,,6/B4f,7,{4}8,{16}3/B5f,2,{8}1,
{16},,3/Cf,4,{4}5,{8}8b/Cf,6h[4:1]/2h[4:1],{16},,,,5,
4,{8}3,8/2,4,{16},,,,8,8,{8}8,
4-6v3V17[1:1],8h[4:7],,,,,,,,,,,3,
4x,3x,2x,
1,1,2,2,3,3,4,5,
{4}5-8[8:1],5/4-1[8:1],4/5-8[8:1],4b/5b,
{8}3x/1,5,8/6,3,1x,6/4,7,2/5,
8x,3/6,2,5/7,4x/8,2/6,5/3,6/8,
{16}1x,2,3,4,5,6,7,8,1x,2,3,4,5/1x,2,3,4,
1x,2,3,4,8x,7,6,5,1bx,2,3,4,1x,2,3,4,
5x,6,7,8,5x,6,7,8,{24}1bx,2,3,4,1,2,3,4,5,6,7,8,
{16}1/5x,6,7,8,1,2,3,4,{8}5,6,7x,8,
1,2,3,4,{16}5x,5,5,5,5x,5,5,5,
{1}5bw1[8:21],
E
