&title=Head BONK ache
&artist=saaa ft. MC iwata Bros.
&first=0.02
&des=Migraine
&lv_5=14
&inote_5=(165)
{1},
{16}1-5[8:1],,,,1w5[12:1],,,,Cf,,,,,,,,
{16}2/4,,,,2/4,,,,3/4,,,,3/4,,,,
{16}5/6,,,,5/6,,,,7/5,,,,7/5,,,,
{16}8,,8,,1,,1,,2,,2,,3,,3,,
{16}3-6[8:1],,,,3/8,,,,{32}1/7x,6x,5x,4x,{16},,{32}8v2-4[4:6]*v6-4[4:6]/2x,3x,4x,5x,{16},,
{16}8b,,,,,,,,,,,,,,,,
{16},,,,,,,,,,,,,,,,
{16},6h[8:1],,,,,,,,E4h[16:42]/E3h[16:37]/B3h[16:32]/B4h[16:27],,,,,,,
(132)
{16},,,,,,,,,,,,,,,,
{16},,,,,,,,,,,,,,,,
{16}8V64[8:1],,,,8,,,,1V35[8:1],,2,,1,,,,
{16}8-3-5[8:1],,,,8,,,,1-6-4[8:1],,2,,1,,,,
{16}5-7[8:1],,6,4,5,,3,,2-8[8:1],,3,4,2,,5,,
{16}6-8[8:1],,7,5,6,,4,,3-1[8:1],,4,5,3,,8,,
{16}7-4[8:1],,6,5,7,,3,,2-5[8:1],,3,4,2,,7,,
{16}8-5[8:1],,6,5,8,,1,,4<8[8:1],,3,,2h[8:1],,,,
{16}1x,,,2x/4x,,,3x/5x,,6v1[8:1],,5,4,6,,3,,
{16}2v5[8:1],,1,8,2,,7,,8v6[8:1],,7,2,8,,4,,
{16}4v2[8:1],,3,6,4,,7,,8-4[8:1],,6,2,8,,1,,
{16}2,,2,,3/4,,3/4,,{12}4h[6:1]/6,8,8,3/5h[6:1],1,1,
{16}2bpp4[4:2]/7bpp8[4:2],,,,,,,,,,,,,,,,
(165)
{16}E6h[4:2]/B5h[4:1]/E5h[4:3],,,,,,,,,,,,1-4[12:1],,,,
{16}1/5-8[12:1],,,,2>5[12:1]/5,,,,2/6v1[12:1],,,,3-5[12:1]/6,,,,
{16}7-3[12:1]/3-1[12:1],,,,7/3,,,,2/8,,,1/7,,,5/6,,
{16}4-8[12:1],,,,7p3[12:1]/4,,,,7/2-6[12:1],,,,8<6>5[12:1]/2,,7,,
{16}8>1>3[12:1]/1,,,,8-4-2[6:1]*-4-6[6:1],,,,8,,,,,,1,,
{16}1>2>4<5[12:1],,,,8/1<7<5[12:1],,,,1/2,,,,3/4,,2,,
{16}1/8V64[8:1],,,,1V36[8:1]/8,,,,1/8,,,,,,7,,
{16}7b-1[12:1]*-2[12:1],,,,7,,,,7-4[12:1]*-5[12:1],,,,7,,,,
{16}1>2-4[12:1]*<8-6[12:1],,,,1w5[12:1],,,,1,,,,,,,,
{16}6-2[8:1],,6h[8:1],,,,,,5-1[8:1],,5h[8:1],,,,,,
{16}4-8[8:1],,4h[8:1],,,,,,3-7[8:1],,3h[8:1],,,,,,
{16}2-6[8:1],,2h[8:1],,,,,,1-5[8:1],,1h[8:1],,,,,,
{16}8b>2>3<4[8:1]*<7<6>4[8:1],,,,8bw4[12:1],,,,8b/Cf,,,,,,,,
{16}1-3[12:1],,,,1-7[12:1]/5h[8:1],,,,1-3[12:1]/5h[8:1],,,,1-7[12:1]/5h[8:1],,,,
{16}1-3[12:1]/4h[8:1],,,,1/6h[8:1],,,,5,5,,3,4,2,4,,
{16}1>3[12:1]/5h[8:1],,,,1<7[12:1]/6h[8:1],,,,1>3[12:1]/4h[8:1],,,,1/6h[8:1],,,,
{16}4/8,,3/7,,2-6-3-5[8:3]/6,,1/5,,,,,,,,,,
{16}8-6[12:1],,,,8-2[12:1]/3h[8:1],,,,8-6[12:1]/5h[8:1],,,,8-2[12:1]/3h[8:1],,,,
{16}8-6[12:1]/5h[8:1],,,,8/3h[8:1],,,,4,4,,6,5,6,4,,
{16}8<6[12:1]/4h[8:1],,,,8>2[12:1]/3h[8:1],,,,8<6[12:1]/5h[8:1],,,,8/3h[8:1],,,,
{16}1/5,,2/6,,3/7,,4/8,,{32}4b/8b,3x/7x,2x/6x,1xh[32:5]/5xh[32:5],{16},,,,,,
{12}1-3[8:1],4,4,1-4[8:1],5,5,1-5[8:1],6,6,1-4[8:1],7,7,
{12}1-3[8:1],6,6,1,5,5,1,8,8,{16}2,3,4,5,
{12}8-6[8:1],4,4,8-5[8:1],3,3,8-4[8:1],2,2,8,3,3,
{16}2,,3/5,,4/6,,5/7,,8v1[8:1]*v7[8:1],,,,,,,,
{16}2-4[12:1],6,5,,2-8[12:1],7,6,,2-4[12:1],6,5,,2-8[12:1],7,6,,
{16}2-4[12:1],6,5,,2,7,6,,6,6,,1,8,2,8,,
{16}7-5[12:1],3,4,,7-1[12:1],2,3,,7-5[12:1],3,4,,7,2,3,,
{16}4,5,3,,1/2,1/2,,3/8,,,{32}7,6,5,4,3,2,1,8,7,,,,
{16}1bv4>3v5[4:6]*v6<7v5[4:6],,,,,,,,,,,,,,,,
{16},,,,,,,,,,,,,,,,
{16},3h[8:1],,,,,,E6h[16:44]/E7h[16:39]/B6h[16:34]/B5h[16:29],,,,,,,,,
(132)
{16},,,,,,,,,,,,,,,,
{16},,,,,,,,,,,,,,,,
{16}2V46[8:1],,,,2,,,,7V51[8:1],,8,,7,,,,
{16}3V17[8:1],,,,3,,,,6-1-7[8:1],,5,,6,,,,
{16}4,,4,,3,,3,,2,,2,,1,,1,,
{32}8,7,6,5,4,3,2,1,8w4[12:1],7,6,5,4,3,2,1,{16}8,,,,1>4[8:1]/8,,,,
{16}1/5<8[12:1],,6,,2-5[12:1]/5,,1,,2/6v1[12:1],,7,,3-5[12:1]/6,,4,,
{16}7-2[12:1]/3,,6,,7/4V28[8:1],,3,,4,,,,7<4[12:1],,,,
{16}2v5[12:1]/7,,3,,6-3[12:1]/2,,7,,6/1-5[12:1],,2,,8v6[12:1]/1,,7,,
{16}8/5-1[12:1],,,,5<6-8[12:1]/1>2-4[12:1],,,,1/5,,,,3/7,,,,
{16}8-4-6[8:1],,,,1/8-4-2[8:1],,,,8/7,,,,6,,7,,
{16}4-2[12:1]/8-6[12:1],,,,4-7[12:1]/8-3[12:1],,,,4/8,,,,,,1,,
{16}1b-4[12:1]*-6[12:1],,,,1,,,,5v2[12:1]*v8[12:1],,,,5,,,,
{16}1>2>3<4[12:1]*<8<7<6[12:1],,,,1,,,,{12}5h[6:1]/3,2,1,2/5,3/6,4/7,
{16}8bqq5pp8b[4:5]/5,,,,,,,,,,,,,,,,
(165)
{16}B3h[4:3]/E4h[4:2]/E3h[4:1],,,,,,,,,,,,,,,,
{16}1b-4[12:1]*-6[12:1],,,,1b-5[12:1]*w5b[12:1],,,,1b/Cf,,,,,,,,
{32}8x,7x,6x,,{16},,4,4,7,5,{32}8x,7x,{16}6x,,,{32}8/4h[8:1],1x,{16}2,,,
{32}8x/5h[8:1],7x,{16}6x,,,{32}8x/3h[8:1],1x,{16}2x,,,4,4,,6,2,7,1,,
{32}8x/4h[8:1],7x,{16}6x,,,{32}8x/3h[8:1],1x,{16}2,,,{32}8x/5h[8:1],7x,{16}6x,,,{32}8x/3h[8:1],1x,{16}2x,,,
{16}2/4,,3/5,,6v8b[8:1]/4,,7,,6>3[8:1]/3<6[8:1],,,,,,,,
{32}1x/5h[8:1],2x,{16}3x,,,{32}1x/6h[8:1],8x,{16}7x,,,{32}1x/4h[8:1],2x,{16}3x,,,{32}1x/6h[8:1],8x,{16}7x,,,
{32}1x/4h[8:1],2x,{16}3x,,,{32}1x/6h[8:1],8x,{16}7x,,,5,5,,4,6,3,7,,
{32}1x/5h[8:1],2x,{16}3x,,,{32}1x/6h[8:1],8x,{16}7x,,,{32}1x/4h[8:1],2x,{16}3x,,,{32}1x/6h[8:1],8x,{16}7x,,,
{16}7/5,,6/4,,5/3,,4/2,,{48}2b,E3,B3,B4,E5,,,,,8b,E8,B7,B6,E6,,,,1b,,,,,,,
{96}8x,,,7x,,,6x,,{12}4,4,{96}8x,,,7x,,,6x,,{12}3,3,{96}8x,,,7x,,,6x,,{12}2,2,{96}8x,,,7x,,,6x,,{12}3,3,
{96}8x,,,7x,,,6x,,{12}4,4,{96}8x,,,7x,,,6x,,{12}4,4,{12}8,3,3,{16}7,6,5,4,
{96}1x,,,2x,,,3x,,{12}5,5,{96}1x,,,2x,,,3x,,{12}6,6,{96}1x,,,2x,,,3x,,{12}7,7,{96}1x,,,2x,,,3x,,{12}6,6,
{16}7,,6/5,,5/4,,4/3,,2v4[12:1]*v8[12:1],,,,,,,,
{32}7x,6x,{16}5x/2,3,,{32}7x,8x,{16}1x/3,4,,{32}7x,6x,{16}5x/2,3,,{32}7x,8x,{16}1x/3,4,,
{32}7x,6x,{16}5x/2,3,,{32}7x,8x,{16}1x/3,4,,5,5,,4,6,3,5,,
{32}2x,3x,{16}4x/7,6,,{32}2x,1x,{16}8x/6,5,,{32}2x,3x,{16}4x/7,6,,{32}2x,1x,{16}8x/6,5,,
{16}3/4,3/4,,2,2/8,2/8,,,{32}1,2,3,4,5,6,7,8,{16}1-5[8:1],,,,
{48}1b>2>4<7>3b[4:12],B1,Cf,B5,A5,,{16},,,,,,,,,,,,,,
{16},,,,,,,,,,,,,,,,
{16},,,,,,,,,,,,,,,,
{16},,,,,,,,,,,,,,,,
E
