&title=幕を下ろそう、パレードへ
&artist=海茶
&first=0
&lv_5=14.0
&des_5=海马赖皮人
&inote_5=
(146){4},8bx/1bx<1b[8:39],{8},,,C,
,,,,,C,,,,,,C,
,,,,,C,
,,,,,C,
,,,,,C,,,,,,{64}7x,
A7f,{32},,,,,,,,,,,,,,,,,,,{8}8/1-4[0.2055##0.2055],
7,6,C,{4},{8}4/5h[4:1],3,
2,7<5[8:1],2>4[8:1],7-3[8:1],2-6[8:1],7,2,C,
,,,8/1h[4:1],,8-5[0.2055##0.411],{4}8xh[8:1],
{8},4x-1[0.2055##0.411],{4}4h[8:1],{2},{8}8-5>4-1[4:5],
1,2,3xh[4:1],{4},{8}B2,C,
B7,6x,7x,7x,8x-5[0.2055##0.2055],8x,1-4[0.2055##0.2055],1,
,8-4[0.2055##0.2055],8,2,,1-3[0.2055##0.2055],1,5-7[0.2055##0.2055],
5,2-4[0.2055##0.2055],2,5h[4:1],{2},{8}8<5[0.2055##0.411],
1,2,3>8[0.2055##0.411],4,5,{4}6h[4:1],
{8}7,8,1<6[0.2055##0.411],2,3,4>1[0.2055##0.411],{4}5,
{8}8,8<6[0.2055##0.2055],8,1h[4:1],,8,{4}7,
{8}5-8[8:1],4,5,1h[4:1],,8,{4}2h[4:1],
{8}8,8,,8-4[8:1],2-6[8:1],8,{4}2,
{8}8-4[8:1],1-6[8:1],8-3[8:1],1-5[8:1],8<4[8:1],1,{4}8,
{8}1/8,2/7,3/6,4/5h[8:5],{4},,,{8}1/5,
2/6,3/7,8/4,{4}1xh[8:1]/5xh[8:1],
{8},{64}8x/4x,7x/3x,6x/2x,5x/1xq5q1[0.3339##0.6164],{16},,,{8}8,8,7,{4}7,
{8}1xV35[8:1],5V71[8:1],1,A5,{4}A1,{8}2-5[0.2055##0.2055]/7-4[0.2055##0.2055],2/7,
,8xV64[0.2055##0.411],4-6-8[4:1],3,2,3,{4}4,
{8}8/1-5[8:1],2,1/8-4[8:1],7,8/1-5[8:1],2,1/8,8,
,7p6[0.2055##0.8219],7,2q3[0.2055##0.411],{2}2,
{8}1-3[8:1],8,{48}1,{8},{48}8,,{16}4bx,{48}D3/D7,A2/A6,D2/D6,A1/A5,{6},{8}8x/4x,4x/8x,
,1b/5b,6b/2b,7b/3b,,4b/5b,,1b/8b,
2b/7bx,1bx/8bx,8bx/7bx,7bx/6bx-2b[8:1],,6bx/5bx-1b[8:1],,5bx/4bx,
,2V47[0.2055##0.411],2,6-8-3[0.2055##0.411],6x,4-1[0.2055##0.2055],{4}4,
{8}5x,1x,5x,{16}2/6,3/7,{4}8/4,{8}1-6[0.2055##0.2055]/5-2[0.2055##0.2055],5/1,
,8<6[8:1],1>3[8:1],8-5[8:1],1-4[8:1],8,{4}1,
{8}3-6[8:1],7-4[8:1],3-8[8:1],7-2[8:1],3>6[8:1],7,3,5b,
,1>4[0.2055##0.2055],{32}1,{8},{32}5x,6x,7x,8x,1x,2x,3x,{8}4xh[8:1]/5xh[8:1],{4},{8}3/6,
2/7,1/8,{16}1/8,2/7,{4}3h[8:1]/6h[8:1],4xh[8:1]/5xh[8:1],
{8},1bx-5b[8:1]/8bx-4b[8:1],2bx/7bx,8bx/1bx,,Cf,,2/6,
1/5,4xh[8:1]/8xh[8:1],{16},{48}1x/5x,2x/6x,7x/3x,{8}4xh[16:3]/8xh[16:3],{48},,,,,3x/7x,2x/6x,1x/5x,{192},{64}8xh[32:5]/4xh[32:5],{16},,,{48}1bx/5bx,2bx/6bx,3bx/7bx,4bx/8bx,,,,,,,,,,,,,,,,,,{16}4,
5,3,6,2,7,1,8,1,8,2,
7,2,7,3,6,3,6b,{48}4,,5,,4-8[0.2055##0.2055],,5,,4,,5,,{32}B4,C,{4}B8,
{16}1b,8,1,8,2,7,2,7,1,8,1,8,{32}1b,2,3,4,5,6,7,8,
1,2/7,3/6,5/4h[32:3],{8},{16}5x,4x,5x,3x,4,3,6x,5,6,3x,4,2,
6x,5,7h[8:1],2h[16:1],{8},{16}6,1,6,1,7,8,7,{32}8bx,1,2,3,8x,7,
6,5,8x,1,2,3,8x,7,6,5,{16}8xh[16:5]/4xh[16:5],,,,,,1x/5x,2x/6x,3bx/7bx,{32},,,,,,,1h[8:1]/8h[8:1],
{16},,,{48}7-3[0.3082##0.2055],A6,A5,{16},{48}1x,2x,3x,{16}4x,Cf,,2b,{8},7,
2,7,2,{16}6,1,8,3,3,8,1,6,{8}6,
1>5[8:9],1,8,7,{4},{8}B1,B8,
B7,C,,7,8,1-5[8:1],8,1,
{16},,,,,8h[16:7]/1>4[16:3],{2},{8}7>1[0.2055##0.2055],
7,3<5[0.2055##0.2055],3,7h[8:3],{2},{8}8<6pp6qq6>4[8:13],
8,8,2h[4:3],,,,,,,,2h[2:1],
,,,,,8v2>3-5-7>8[1:1],
8,8,,,,,,C,
,1h[16:5],,,,,,8-4[8:1],
7-5[0.6164##0.2055]/1-3[0.6164##0.2055],8,,1/7,,2/8-4[8:1],
,8/2-6[8:1],,2/8,,8-6>5[8:1]*-5[8:1],,8-2>3[8:1]*-3[8:1],
,8<4[8:1]*-6-4[8:1],,8>4[8:1]*-2-4[8:1],,8b,,,,6x-8>1-3[4:9],
8,1,,1,,2,
,C,,B8,,7,,C,
,6,,C,,5,,,,8<5[8:5],
1,8,,1-4[8:1],,1,
,4x>1[8:11],,4,,5-8[0.8219##0.2055],,6,
,5,,8x-5[8:1],,8,,,,1-5[8:3],
8,1,,,,8,
,7,,7,,7h[1:1],,8,
,1,,1h[4:1],{64},,,,,,,,,6x/2x,3x/5x,4x,{16}A4f,{8},,,E5h[4:1]/B4h[4:1]/B5h[4:1],
,2x,B8,B7,{4}2x,
{16},,,,,,,E8,,E7,{8}E6,2x,2x,
{2},{8}E8,E7,{4}E6,
{8},2x,{4}2x,{8},E8,E7,B5,
,1-3[0.2055##0.2055],1,5-7[0.2055##0.2055],5,2-4[0.2055##0.2055],{4}2,
{8}8/1,2,7<5[0.2055##0.2055],{16}2,3,{4}4,{8}4-8[0.2055##0.2055]/5-3[0.2055##0.2055],4/5,
,1/2,1/8,8/7,,6/7,,8/1,
2/3,5-1[8:1]/4-8[8:1],,4b>2[8:1]/5b<7[8:1],,5b/4b-8[8:1],,4b/5b,
,{32}1w5[8:1],2x,3x,4x,5x,6,7x,8x,{16}1x,Cf,{4},1/8,
{8}7/2>4[8:1],1,2/7>2[8:1],{16}5x,6x,{4}7x,{8}8,8,
,8-6[8:1],1-5[8:1],8-4[8:1],1-3[8:1],8,{4}1,
{8}2/6<8[8:1],5,6/2>4[8:1],1,2/6-2[8:1],7,6/2,3,
,{32}8x/1x-5-1[4:1],2x/7x,3x/6x,4x/5x,{8},1/8h[4:1],{4}A5,8,
{24}6x,7x,8x,4x,3x,2x,{8}1xv4[0.2055##0.2055]/8xv5[0.2055##0.2055],A1/A8/D1/E1f,{4},2bxh[8:1]/7bxh[8:1],
{8},2/6,1/5,4bh[1:1]/8bh[4:1],,,,8,
8,8,{16}8bh[8:1],{8},{32}1x/5x,2x/6x,3x/7x,4x/8x,{48}5x,6x,7x,8bx,1x,2x,3x,{24}4bx/8bxs4b[0.274##0.1027],{8},{32}8bx,Cf/B8f/B1f/B7f/B6f/B2f/E3f/E8f/E7f/E6f/B5f/E5f/B4f/E2f/E1f/E4f/B3f,{16},,,,,,,7,
6,5-8[16:1],4,3,2,A5,A8,{8},{16}1,
8,2,7,3,6,4b,5xh[8:1],{8}4xh[16:1],{16}3x/6x,2x/7x,{4}1xh[16:1]/8xh[16:1],
{16}2h[16:3]/7h[4:1],{4},{16}1b,8,1,8,1,7x/2x,3x/6x,4xh[16:1]/5xh[16:1],{8},{16}8,
1,7xh[16:1],,1,8,2xh[16:1],,7-4[0.2055##0.2055],8,7,B5,A4,2x,2x-5[0.2055##0.2055],1,2,
B4,A5,8x,8x-4[0.2055##0.2055],1,8,C,A4,2,7,2,7,2,1bxh[16:1]/8bxh[16:1],,4,
5,4,5,3,6,3,6,{48}2,,7,,2,,7,,2,,7,,{16}2h[8:3],,7bxh[4:1],{4},{16}4,
5,4,5,3,6,3,6,3,6,{4}2bq7[4:5],
{8}1,8,3,6,{16}2,8,{8}1b,{16}6,3,{8}8b,
{16}3-7b[0.2055##0.2055],3,{8}3b,,1bx-5[1:1],,,,E2,
,B2,,B3,,E4,,8bx-4[4:3],
,E8,B7,E7,B6,E6,{4},{8}C,
E3,E7,C,{4}E3,E1,
{8}E5,E6,{4}E4,E2,E8,
{8}C,E6,E4,B8,B1,C,8x<5[0.2055##0.2055],{32}1x,2x,3x,4x,
{1}D5h[4:3],
E
