&title=Forever
&artist=FELT
&first=0.07
&des=Éternel
&des_5=
&lv_5=13
&inote_5=(120)
{1},,
{8}3,4,5>2[16:3],6h[16:9],,,,{16},1>4[16:3],
{16},,,,,,7,,
{16}8<5[16:3],,,,4,,,,
{8}3,4,5v2[16:3],6h[8:3],,,,,1q7[8:2],,7<1[8:3],,,,,,
{8}6,5,4<8[8:2],3h[8:4],,,,1-6[8:1],
{8},3-8[8:1],,5-2[8:1],,7pp6[8:13]/5qq6[8:13],,,,,,,,,,,,,,,,,,,
{8}2b/6b,5,4pp4[16:5],3,2h[16:7],,,{16},,
{8},,,1,2/4,3,4/6,,
{8}3/7,4,5p4[16:5],6h[16:10],,,,,2p4[8:2],,4p6[8:2],,6p8[8:2],,,,
{8}7,5,4,2<7[8:1],,,6,5,
{8}4,3>6[8:2],,5,{16}4,,,,2/4,,,,3p7[8:8]*q7[8:8],,
{8},,,,,,,,,,,,,,,
{16}5/7,,,2/3,,,5v4[8:1]/6v7[8:1],,,,,,,,,,
{16}6/8,,,2/3,,,5v6[8:1]/7v6[8:1],,,,,,,,,,
{16}5/6,,,1/3,,,6v5[8:1]/7v8[8:1],,,,,,,,,,
{16}5/7,,,1/2,,,8/6,,,,,,8/7v4[12:1],,,,
{16}2b/7b,,,,2h[8:4]/4,,4,,5,,4,,4,,5/2,,
{8}6/1h[8:6],5,5,6,5,5,6,1/7,
{8}3h[8:6]/8,7,7,7,8,8,8,8,
{4}1/2,,,1-5[12:1]/2-6[12:1],
{8}1b/2b,,2/5,4,3>1[12:1]/4,4,5/3,4,
{8}4/3,5<7[12:1],4,4/5,3>1[12:1],4,7<5[12:1]/3,8,
{8}7b/1b,3>1[12:1],3,4/3,5<7[12:1],4,4/5,3,
{16}3/4,,3,4,3,,2,1,2,,1,,3/8,,4/7,,
{16}5b/6b,,6<8[12:1],,4,,5/6,,3,,4,,3>1[12:1]/4,,4,,
{8}3/5,6<8[12:1],5,4/6,3,3/4,2/7-4[12:1],1/8,
{8}2b/7b,3,2-8[12:1]/5,,2/6,7v4[12:1],,3/7,
{8}2,1,1,4,2/5,1/6,7-3[12:1]/8-4[12:1],1/6,
{16}7b/8b,,,,2/5,,1,,7,8,7,,1/6,,5,,
{8}4/3,3>1[12:1],4,3/5,6<8[12:1],2,5/6,
{16}1,2,8/3,,7<5[12:1],,8,,4/7,,3>1[12:1],,4/5,,6/3,,7,6,
{16}5/1>3[12:1],,8,,1,,5,,1/6<8[12:1],,2,,6/3<5[12:1],,1,2,
{16}3/8,,6<8[12:1],,5,,4/6,,5q1[8:1],,4,,2>4[12:1],,3,,
{16}2/8,,1q5[8:1],,6,,7<5[12:1]/1,,8,,2/7,,3<3[8:8],,1/8,2/7,
{4}3/6h[8:6],,,,
{8}7,8,8,5,2,4,3qq7[8:8]/5,,
{4},,,4,
{8}5pp1[8:8],,,,,,,,
{8}2pp5[8:8],,,,,,7,,
{4}6pp1[8:5],,,3,
{8}4h[8:6]/3,5,5,5,5,5,5,6,
{8}7h[8:6]/5,6,6,6,6,8,1,2,
{8}3h[8:6]/4,2,2,2,4,4,4,2/4,
{8},3,1-3[12:1]/8,7,1/8-4[12:1],,1/8,,
{16}2b/6b,,3>1[12:1],4,3,,3/5,,6<8[12:1],,5,,4/6,,3,,
{16}8/2,,2,,6/1-3[12:1],,7/8,,1-5[8:1],,5-3[12:1],,8/1,,,,
{16}{16}7b,,6<8[12:1],5,6,,6/4,,3>1[12:1],,4,,5/3,,6,,
{16}1/7,,7,,3/8-6[12:1],,2/5,,1/8-4[8:1],,,,1/8,,,,
{16}3bV51[16:3]/5b,,,,6,,6,,6V48[16:3],,6,,6/3,,2,,
{16}2V84[16:3],,2,,2/6,,7,,7,,7pp4[8:9],,7h[8:10]/1,,,,
{1},
{8},,,,,,,,
{16}1h[8:2],,6,5,4<8[8:4],,1,,,,,,,,,,
{8},,,,4,4,2,5,
{8}7h[8:2],5,4,3qq4[8:3],,,,,
{8},,,,6h[8:3],5,4,3,
{8}6,5,4,3>8[16:3],,,,,
{8}7,6,5,4>1[16:3],,,,,
{8}8,7,6,5>2[16:3],,,,,
{8}1b,,,,,,1w5[8:6]*w5[8:6]/8,,
{1}1b,
{8}3h[8:7]/4h[8:7],,,,,,,,
{8}2h[8:7]/4h[8:7],,,,,,,,
{8}2h[8:3]/8h[8:3],,,,8h[8:3]/1h[8:3],,,,
{8}4/5,,,4qq5[16:4]/5<4[16:4],1/7,4/5,,,
{8}3/6,,,3/6,1/8,2/7,4>5[16:4]/5pp4[16:4],3/6,
{8}4/5,,,3/6,,4/5,2/7,,
{8},4/5,4/5,4/5,3/6,1/8,2pp2[16:3]/7qq7[16:3],4/5,
{4},,,,
{8}2qq4[8:10],,,,,,,5pp4[8:3],
