&title=Pentiment
&artist=Nothing But Requiem with Museo
&first=0.04
&des=你不让我买
&clock_count=4
&lv_7=11
&des_7=
&inote_7=(222)
{1},,
{4}36,6/3pp6[8:10],,,
8bx,,,,
72,2/7pp2[8:10],,,
4bx,,,,
36,6/3qq6[8:10],,,
8bx,,,,
74,7p4[8:10]/4,,,
3bx>5b[8:4],,,,
{8}3x-1[8:1]/4x,,5,5-7[8:1],,8,8-4[8:1],,
7,7-5[8:1],,2,2h[8:2],,8,7,
6x-8[8:1]/5x,,4,4-2[8:1],,1,1-5[8:1],,
2,2V41-5[8:4],,7,7,,,,
4h[16:1]/6h[16:1],4h[16:1]/6h[16:1],3h[16:1]/7h[16:1],3h[16:1]/7h[16:1],
2h[16:1]/8h[16:1],2h[16:1]/8h[16:1],1b,,
5h[16:1]/3h[16:1],5h[16:1]/3h[16:1],6h[16:1]/2h[16:1],6h[16:1]/2h[16:1],
7h[16:1]/1h[16:1],7h[16:1]/1h[16:1],8b-4[8:1],,
4bxV26-8b[8:4]/8x,,,,,,,,
{16}1,2,3,4,7,6,5,4,{32}E1,E2,E3,E4,E5,E6,E7,E8,E1/Cf,,,,,,,,
{8}21,2,34,3,21,2,34,65,
78,7,65,6,78,7,65,34,
21,2,34,3,21,2,34,65,
7x^4[8:1]/4,,2xq6[8:1],,8xp4[8:1],,1x,,
35,3,21,2,35,3,21,78,
64,6,78,7,64,6,78,12,
35,3,21,2,35,3,21,78,
{12}6bx>2[24:5],,3bx>7b[24:5],,8bx<4[24:5]*p4[24:4],,E8f,,,,,,
{8}1/3-5[8:1],1,1,1,2-5[8:1]/8,8,8,8,
7/1-5[8:1],7,7,7,2-5[8:1]/8,8,8,{16}8,7,
{8}6-1[8:1]/2,2,2,2,5-1[8:1]/3,3,3,3,
2x^5[8:1]/8,,7xp3[8:1],,1xq5[8:1],,8x,,
64,46,35,35,2-5[8:1]/4-2[8:1],24,,,
87,87,54,54,{16}2,1,2,1,2,1,2,1,
{8}3qq8[8:4],,7,6,5,4^7[8:1],,1-5[8:1],,8,8,1-6[8:1]*V35[16:3],,1,,,
7b-4-8[8:2],,2,,3-6-2[8:2],,1,,
8xV61[8:2],,1-5[8:1],,4V26[8:2],,,,
7xV58[8:2],,8-4[8:1],,2xV48[8:2],,8V64[8:2],,
4xV28[8:2],,8V63[8:2]*-5-2[8:2],,,,,,
3b-6-1[8:2],,6,,8-5-2[8:2],,1,,
3xV51[8:2],,1-6[8:1],,7-3[8:1],,,,
{16}2b/5b,,,,6,5,6,,4,5,4,,7,5,7,,
3,5,2,5,1,5,8,5,7-2[8:1]*v4[8:1],,,,,,,,
53,,,,1/7-4[8:1],,7,,71,,1,,1,,,,
82,,2,,7/3-6[8:1],,7,,38,,8,,8qq1[8:2]*^3[8:1],,,,
8,,,,2-5[8:1],,2,,28,,8,,8,,,,
17,,7,,2/6-3[8:1],,2,,61,,1,,1^4[8:1],,,,
1/6^1[8:1],,,,2^5[8:1]/6,,,,2/8p4[8:1],,,,8/3^8[8:1],,,,
3/7^4[8:1],,,,2^7[8:1]/7,,,,2/5w1[8:1],,,,5,,,,
82,,82,,34,,34,,75,,75,,18,,18,,
4b/3b,,1b/5b,,,,6b/5b,,4b/8bz4[16:3],,,,{64}E8,E6,E2,E4,D5,,,,,,,,,,,,
{8},,,,,,,,,,,,,,,,,,,,,,,,,,,,,,,,,,,,,,,,,,,,,,,,,,,,,,,,,,
4?z8b[8:2],,
{-8},,,,4s8[110#8:1],
{8},,,,,,,,,
2h[8:1],8h[8:1],3h[8:1],4h[8:1],1h[8:1],7h[8:1],5h[8:1],6h[8:1],
3q5[8:4],4,1bh[8:4],,,,,,
7h[8:1],1h[8:1],6h[8:1],5h[8:1],8h[8:1],2h[8:1],4h[8:1],3h[8:1],
6p3[8:4],5,8hb[8:4],,,,,,
3b-5[8:1]/5,,6,7,8b-3[8:1],,85,,
6b-4[8:1]/4,,3,2,1b-6[8:1],,14,,
5b-1[8:1],,5/3b,,4b-8[8:1],,4/6b,,
7b-4[8:1],,71,,{24}1b,2,3,4,5,6,7,8,1,2,3,4,
{8}7xqq3[8:8]/5,,7,,7,,7,,7,,7,,7,,35,35,
2pp6[8:8]/4,,2,,2,,2,,2,,2V86[8:2]*V46[8:2],,,,,,
7,7,7,7,5,5,5,5,4,4,4,4,1,1,1,1,
28,2,31,3,65,6,84,8,
{16}3,7,3,7,2,5,2,5,1,6,2,7,3,8,4,1,
5x>6[8:4],,,,,,,,,,,,,,,,
D4,B3,B1,D1,D6,B6,B8,D1,A3,B4,B5,A6,Ch[8:2],,,,
2b,1,2,1,3,8,3,8,4,7,4,7,5,6,5,6,
4,3,2,1,5,6,7,8,3,4,5,6,7,8,1,2,
8b,3,8,3,6,4,6,4,5,2,5,2,4,1,4,1,
5,6,7,8,4,3,2,1,6,5,4,3,2,1,8,7,
2b,6,2,6,3,5,3,5,4,7,4,7,1,8,1,8,
2b-4[8:1]/7-4[8:1],,,,2b/7,,,,1b-5[8:1]/8-6[8:1],,2/7b,,1b/8,,,,
4b^1[8:1]/7b^4[8:1],,,,,,,,8b-5[8:1]*-3[8:1],,,,,,,,
2xpp5[8:4]/4xpp7[8:4],,,,,,,,,,,,,,,,
{16}2,4,2h[8:1],,6,4,6h[8:1],,1,5,1h[8:1],,7,3,7h[8:1],,
2,5,4h[8:1],,6,3,5h[8:1],,3,4,5,6,7,8,1,2,
7,5,7h[8:1],,2,4,2h[8:1],,6,5,6h[8:1],,4,5,4h[8:1],,
{16}D6,E7,D8,,D4,E3,D2,,E5,C,E1,,27,,,,
2,4,1h[8:1],,7,4,6h[8:1],,2,5,1h[8:1],,6,2,7,,
84,,8^5[8:1]/4,,,,4,,2-5[8:1],,1-6[8:1],,2,,1,,
3bh[8:2],,,,4,,1/7bh[8:2],,,,5,,2bh[8:2]/8,,,,4,,4pp2[8:4],,,,1b<3b[8:2],,,,,,,,,,
A1/D2f/A2/E2h[8:10]/B1/B2,,,,4x,,,,5x,,,,6x,,,,
8x,,,,7x,,,,6x,,,,5x/4x,,,,
A8f/D8h[8:10]/A7/E8h[8:10]/B8/B7,,,,5x,,,,4x,,,,3x,,,,
1x,,,,2x,,,,3x/6x,,4,5,4,,2x/7x,,
A8h[8:10]/D1f/A1h[8:10]/E1h[8:10]/B8/B1,,,,3x,,,,4x,,,,5x,,,,
7x,,,,6x,,,,5x,,,,4x/5x,,,,
A7f/D7h[8:8]/A6/E7h[8:8]/B7/B6,,,,4x,,,,3x,,,,2x,,,,
8x,,,,1x-4^5-8b[8:2],,,,,,,,,,,,
2bh[8:1]/1bh[8:1],,,3bh[8:1]/4bh[8:1],,,5b/4b,,
7x/1x`8x,,5,,8x/2x`1x,,3,,6x/4x`5xV74-8-3b[8:4],,,,,,,,,,,,,,,,
7bh[8:1]/8bh[8:1],,,6bh[8:1]/5bh[8:1],,,3bx,4bx,
2x/5x`1x,,6x,,7/4`8x,,2x,,1/7`8xV27-3-6-4b[8:5],,,,,,,,,,,,,,,,
3,,3,,3,,3,,35,,35,,35,,35,,
7,,7,,7,,7,,73,,73,,73,,73,,
25,,25,,25,,25,,25`1x,,25`1x,,25`1x,,25`1x,,
84,,84,,84,,84,,8z4[16:3]/4`7x-5[128:1]*-3b[8:1],,84`7x,,,,,,
2,,2,,5,,5,,64,,64,,35,,35,,
7/1`6x,,7/1`6x,,2/8`3x,,2/8`3x,,
1-5[128:1]/8-4[128:1]`2x-4[16:1]/7x-5[16:1],,1/8`2x/7x,,,,,,
1,,1,,8,,8,,27,,27,,36,,36,,
1/8`2x/7x,,1/8`2x/7x,,1/8`2x/7x,,1/8`2x/7x,,
1/8`2x/7x,,1/8`2x/7x,,
1/8`2x/7x,,1/8`2x/7x,,
Cf,,,,
{12}2,3,4,1,2,3,8,1,2,7,8,1,6,7,8,5,6,7,4,5,6,
{16}3,4,5,6,2,3,4,5,1,2,3,4,{32}8,1,2,3,4,5,6,7,
{16}8bxqq6qq4[8:4]*pp2pp4[8:4],,,,,,,,,,,,,,,,
{32}3b/6b,2b/7b,1b/8b,,,,,,{16},,,,,,,,
{-4},,,
{16}7?-3[55.5#32:1],,,,8?-4b[55.5#32:1],,,,1?-5b[55.5#32:1],,,,2?-6[55.5#32:1],,,,
{4},,,
{-4},,,
{4}7b,8b,1b,2b,
{-4},,,,
{4}7?-3b[0##0.135],8?-4[0##0.135],1?-5[0##0.135],2?-6b[0##0.135],
{16}
1b/8b,,,,23,,54,,76,,54,,12,,87,,
18,,2,3,47,,7,6,51,,1,2,63,,54,,
78,,16,,21,,38,,16,,34,,28,,65,,
13,,28,,17,,86,,51,,26,,37,,84,,
35,,14,,65,,48,,12,,18,,87,,76,,
5b-1[8:1]/4b-8[8:1],,,,4b/5b,,,,
2b/3,,6/7b,,5/4b,,1/8b,,
2b-5[8:1],,7,,4b-1[8:1],,6,,1b-5[8:1],,7,,5b-2[8:1],,6,,
1b>5[8:1],,7,,5bp1[8:2]*p7[8:2],,6,,,,,,,,,,
7b-4[8:1],,2,,5b-8[8:1],,3,,8b-4[8:1],,2,,4b-7[8:1],,3,,
8b<4[8:1],,2,,4bq8[8:1],,3,,1bw5[8:1],,,,1b,,,,
2b-5[8:1],,7,,4b-1[8:1],,6,,1bV35[8:1],,7,,5b,,6,,
7b-4[8:1],,2,,5b-8[8:1],,3,,8b-4[8:1],,2,,4b,,3,,
2b-5[8:1]/1b-5[8:1],,,,2b/1b,,,,1b-5[8:1]/7b-5[8:1],,,,1b/7b,,,,
3,4,2,5,1,6,8,7,{24}5,6,5,7,4,7,3,8,3,1,2,1,
{4}2-6[8:12],,,,,,,,
8-4[8:12],,,,,,,,
(210)
3h[8:16],,,,4,,5,,
(200)
{4}8?w4[33.5#8:2],
{-4},
(200)
{4}7w3b[33.5#8:2],,,,,,7b,,,,,,,
(222)
{16}2x/1,5x/4,2x/1,,,,7/8x,3x/4,7x/8,3x/4,7x/8,,,,1/2x,6x/5,
1/2x,6x/5,1/2x,,,,54,,
3/6,,18,,3/6`4x/5x,,27,,
2x/1,5x/4,2x/3,,,,7/8x,3x/4,5x/6,3x/4,7x/8,,,,1/2x,6x/5,
4/3x,6x/5,1/8x,,,,36,,{12}1b/8b`2x/7x,1b/8b`2x/7x,1b/8b`2x/7x,
1bs5s1<8[8:4]/8bz4z8>1[8:4]`2x/7x,
