&title=ヒトリボッチサテライト
&artist=cosMo@暴走P ver.O
&first=0
&des=SpicyChili
&lv_5=13+
&inote_5=(190)
{1}
,,
{16}
5>3[4:1],,,,,,,,
,,,,,,,,
6>4[4:1],,,,,,,,
,,,,,,,,
7<5[4:1],,,,,,,,
,,,,,,,,
8<6[4:1],,,,,,,,
,,,,5,,,,
4<6[4:1],,,,,,,,
,,,,,,,,
3<5[4:1],,,,,,,,
,,,,,,,,
2>4[4:1],,,,,,,,
,,,,,,,,
1>3[4:1],,,,,,,,
E7,,,,E3,,,,
7b<4[8:1],,7,,B2/B1,,,,
3,,4,,25,,,,
1>4[8:1],,1,,7,,6,,
5,,4,,36,,7,,
8/2b>5[8:1],,2,,B7/B8,,,,
6,,5,,74,,,,
8<5[8:1],,8,,2,,3,,
4,,5,,63,,2,,
1b/5b,,,,1/E4,,,,
1/B6,,,,1/B2,,,,
8h[8:7]/1,,,,E1,,,,
C,,,,E5,,,,
8b/4b,,,,8/E6,,,,
8/B3,,,,8/B7,,,,
1h[8:7]/8,,,,E1,,,,
C,,,,E5,,,,
1>3[8:1],,1,,8,,7,,
6<8[8:1],,6,,5,,4,,
3<5[8:1],,3,,2,,1,,
8>2[8:1],,8,,7,,6,,
5/3,4,5,6,7,8,1,2,
37,6,5,4,3,2,1,8,
{32}
7h[1:1]/B2,B3,B4,B5,B6,B7,B8,B1,
B2,B3,B4,B5,B6,B7,B8,B1,
E2,E3,E4,E5,E6,E7,E8,E1,
E2,E3,E4,E5,E6,E7,E8,E1,
{16}
E2f,,,,,,,,
,,,,,,,,
,,,,8b-4[8:1],,,,
,,,,,,,,
7-5[8:1],,,,3,,3>8[8:1],,
,,6,5,4,,,,
1,,E8/B8,2,E7/B6,,3h[4:1],,
,,B8,C,B4,,,,
2>4[8:1],,,,6,,6-1[8:1],,
,,3,4,5,,,,
8h[16:3],,,7h[16:3],,,6h[4:1],,
,,4,5,6,7,8,1,
5/2-4[8:1],,,,6,,6v1[8:1],,
,,3,4,5,,,,
8,,E2/B1,7,E3/B3,,6h[4:1],,
,,B1,C,B5,,,,
7<5[8:1],,,,3,,3v8[8:1],,
,,6,5,4,,,,
1h[16:3],,,2h[16:3],,,3h[4:1],,
,,,,1,8,7,6,
5b/C,,E2,B1,B8,E8,E4,B4,
B5,E6,E3,B2,B7,E7,2,3,
4,5,,8,7,6,5,2,
1,3,8,4,7,5,6h[4:1],,
,,3x,4,,8x,7,,
1x,2,,6x,5,1,2,3,
4,7,6,5,{32}A2,D3,A3,D4,A7,D7,A6,D6,
{16}
,4x,4x,4x,4x,4x,4x,4x,
4bx,,E8,B8,B1,E2,E6,B5,
B4,E4,E7,B7,B2,E3,7x,6,
5h[8:3],,1,1,,,2>5[8:1],,
,,1,,8,,7,,
65,4,3,2,5,6,7,8,
5,4,3,2,1,8,7,6,
54,3,2,1,87,6,5,4,
1,2,3,4,5,6,7,8,
2/1bqq7qq5>3[2:3],,,,,,,,
,,,,,,,,
,,,,,,,,
,,,,,,,,
2qq4[4:3],,,,,,,,
,,,,,,,,
,,5,6,7,8,2,3,
4,5,1,8,7,6,54,3,
2,,1x/E7,,,8/3,,,
6/B1,,,2/5,,,8<5[8:1]/E4,,
,,4,3,2,1,,,
8x/E5,,,3/7,,,5/E2,,
,,2,3,4,5,7,6,
5,4,8,1,2,3,8b/4b,,
,,73,,73,,62,,
62,3,4,5,{32}8,7,6,5,4,3,2,1,
{16}
8b<5[8:1],,,,4>1[8:1],,4,,
,,7<4[8:1],,,,7,,
1,,2,,37,,4,6,
3,7,2,8,1>4[8:1],,,,
1,,6h[8:1],,5h[8:1],,4h[16:3],,
,E2/B1/B2,,,E7/B6/B7,,,E4/B4/B3,
,,8,2,8,2,7,3,
7,3,7,6,5,41,2,3,
4/8w4[8:1],,,,8,,,,
,,2-5[8:1],,1,,2,,
7-4[8:1],,8,,7,,,,
46,,37,,28,,1h[4:1],,
,,2,3,4,5,6,7,
81,2,3,54,6,7,8b/4b,,
,,37,,37,,26,,
26,,15,26,37,48,1b/5b,,
,,15,,15,,48,,
48,,{24}37,6,5,4,3,2,1,8b/4b,,
{16}
,,37,,37,,26,,
26,,15,26,37,48,1b/5b,,
,,15,,15,,48,,
48,,37,,37,,26,,
2,3,4,5,1,2,3,4,
8,7,6,5,7,6,5,4,
1,2,3,4,5,6,7,8,
{32}
1,2,3,4,5,6,7,8,1,2,3,4,5,6,7,8,
{16}
1b>8[2:1],,,,,,,,
,,,,,,,,
1b-5[8:1],,,,,,,,
{32}
2h,3h,4h,5h,6h,7h,8h,1h,
2h,3h,4h,5h,6h,7h,8h,1h,
{16}
2w6b[8:1],,,,{96}2b<4[4:1],,,B2,,,Cf,,,,B6,,,,,,,,,,,,,,
{16}2x,,,1xpp4[4:1]*qq6[4:1],,,1x,,
,,,,,,35,,
6,,47,,5/8<3[4:1],,,,
8b,,,,,,1,,
2b/5,,1bpp4[8:3]/8bqq5[8:3],,36,,1b/8b,,
,,,,,,,,
3,2,1,8,5,6,7,8,
1-5[8:1],,,2,1,,3-7[8:1],,
,4,3,,5h[4:1],,,,
2,,,3,7,,26,,
4/8p5[4:1]*q3[4:1],,,,8b,,,,
,,,,26,,,,
37,,3v8[8:1]/7v4[8:1],,,,37,,
,,15,,26,,3<6[4:1]/7>2[4:1],,
,,,,,,,,
,,,,,,,,
,,,,,,,,
,,,,,,,,
{32}
2,3,4,5,6,7,8,1,
{16}
2/C,,,,
,,2b/6h[1:0],,,3b/7h[1:0],,,
4b/8h[1:0],,,5b/1h[1:0],,,6b/2h[1:0],,
D3,A3,D4,A4,A8,D8,A7,D7,
E4/B4/B3,,,E7/B7/B6,,,E2/B1/B2,,
Cf,,E4,B3,B2,E8,B7,B6,
E3,B2,B1,E7,B6,B5,,,
1,8,2,7,3,6,4,5,
4,6,3,7,2,8,1,,
7,6,5,4,8,7,6,5,
1,2,3,4,2,3,4,5,
8,7,6,5,4,3,2,1,
{32}
8,7,6,5,4,3,2,1,8,7,6,5,4,3,2,1,
{16}
8b<5p5>1[4:5],,,,,,,,
,,,,,,,,
,,,,,,,,
,,,,8V63[8:3]*V25[8:3],,,,
8,,,,,,,,
,,4x/6x,,3x/7x,,2xv5[8:1]/8xv5[8:1],,
,,,,,,,,
6,5,4,3,2,1,8,7,
6/2,,,,3/5h[16:3],,,4,
6,,7,,81,,,,
21,,21,,3/8h[16:3],,,1,
7,,6,,45,,,,
3,4,3,4,2,5,2,5,
1,6,1,6,1,7,1,8,
{24}2x>7[4:1],1x,2x,1x,2x,1x,{16}2x,,,,
1x,,,{32}1,B1,C,B5,,,,,,,
{16}
37,,4,5,4,6,5,,
7h[16:3],,,8h[16:3],,,1,,
1<5[4:1],,,,,,,,
4h[4:1],,,,3,2,1,8,
{24}
7,,2,,4,,1,,6,,3,,
8,,2,,5,,1w5[8:1],,,1,,,
{16}
,,,,,,28,37,
46,,,28,,,17,26,
3/5pp1[2:1],,,,3,,3,,
,,2,,2qq5[2:1],,,,
4,,,5,,,6,,
7-2[8:1]*-4[8:1],,,,7b,,,,
35,,35,,46,,46,,
52,,52,,47,,47,,
{32}
B7,B6,B5,B4,B3,B2,B1,B8,
B7,B6,B5,B4,B3,B2,B1,B8,
E8,E7,E6,E5,E4,E3,E2,E1,
E8,E7,E6,E5,E4,E3,E2,E1,
{16}
E8f,,,,,,,,
,,,,,,,,
,,,,E1,,,,
E5,,,,C,,,,
2s6[4:1],,,,6s2[4:1],,,,
1,,,,8,,,,
7,,7h[8:1],,6,,6h[8:1],,
5<8[8:1]*>2[8:1],,5,,,,,,
E8,B8,B1,E2,E6,B5,B4,E4,
8xw4[8:1],,8x,,,,,,
B1/E2,,B5/E6,,B3/E4,,B7/E8,,
2,3,4,5,6,7,8,1,
2/7z3[4:1],,,,3z7[4:1],,,,
8,,,,1,,,,
2,,2h[8:1],,3,,3h[8:1],,
4>1[8:1]*<7[8:1],,4,,,,,,
E2,B1,B8,E8,E4,B4,B5,E6,
1,28,37,46,5s1[4:1],,,,
5,,,,,,,,
{32}
2,3,4,5,6,7,8,1,2/Cf,,,,,,,,
{16}
38,,37,,2/6h[4:1],,,1,
1>4[8:1],,,,{24}18,7,6,5,,,
{16}
4x,5,3,6,2,7,1,8,
1,2,3,4,5,6,7,8,
1x<6[8:1],,3,,1,,4,,
5-8[8:1],,3,,5,,,,
1,2,3,4,{32}A7,D7,A6,D6,A2,D3,A3,D4,
{16}
,5x,5x,5x,5x,5x,5x,5x,
5bx,,E2,B1,B8,E8,E4,B4,
B5,E6,E3,B2,B7,E7,,,
28,,28,,37,,37,,
46,,46,,35,,35,,
2,3,4,5,1,2,3,4,
8,7,6,5,7,6,5,4,
1,2,3,4,7,6,5,4,
{32}
1,2,3,4,5,6,7,8,1,2,3,4,5,6,7,8,
{16}
1bv3[12.667#120:1]*bs5[12.667#120:1],,,,,,,,
,,,,,,,,
,,,,,,,,
,,,,,,,,
,,,,,,,,
,,,,,,,,
,,,,,,,,
,,,,1x,,,,
