&title=YOUNITHM
&artist=大国奏音
&first=0.03
&lv_5=14+
&des_5=和风mooooke
&inote_5=
(260){4},{1},{4},,,{24},B6,
,,,,,B4,,,,,,B2,,,,,,B7,,,,,,B5,
,,,,,E4,,,,,,,{12}6h,{24},,,5h,,,,,,3h,
,,,,,2h,,,,,,8h,,,,,,2h,{48},,,,,,,,,,,{16}6h,
{48},,,,,,{12}6h,5h,4h,{24},,,,,,,B3,,,,,,B4,
,,,,,E5,,,,,,B3,,,,,{4}B4,
{24},E5,,,,,,B3,,,,,,B4,,,,,,E5,,,,,,Ch[24:11],
,,,,,,,,,,,,{12}7h,{24},,,1h,,,,,,,,,,,,C,
,,,,,,,,,,,,,,,,{4}6,
5,4,6,
5,4,5,4,
3,3,4,5,
2,{12}2x,3,4,{4}5,7h,
2h,6h,{24},5h,,,,,,4h,,,,,,6h[1:1]/3h,
,,,,,4h,,,,,,5h,,,,,,4h,,,,,,3bh,
,,,,,,,,,,,C,{1},{4},{16},,{24},{16}1bx/8bx,
2bx/7bx,3bx/6bx,5bx-3-7-2-6-4b[16:57]/4bx-6-2-7-3-5b[16:57],{1},,,,{4},{2}Ch[2:1],
{4},,,,7,
2,6,3,
{3}5h[3:2]/4h[24:11],,4h,
{6},,,{2}5/6h[4:3],
3h[4:3],4,
{1}4h[4:3]/2-4-1[1:1],
{4}8h[4:3],,,C,
,,,,{1}6bh[4:3]/2bh[4:3],
8bh[1:1]/4bh[1:1],
,Ch[1:4]/7-5q3b[2:11],
,,,,,,{24},1,
,5,,1,,5,,8,,4,,8,,4,,7,,3,,7,,3,
{6}8-5[0.1538##0.1538],8,{12},4,3,2,1,8,7,6,
{6}5-1[0.1538##0.1538],5,2-6[0.1538##0.1538],2,{12}7,8,1,2,
3,4,{6}5-2[0.1538##0.1538],{3}5,{12},,1,2,
,2,{6}1-5[0.1538##0.1538],{12}1,,,3-7[0.1538##0.1538],,3,,8-4[0.1538##0.1538],
,8,,2-5[0.1538##0.1538],,2,,,,3,4,,4,
3,{24},,,,,{8}2,2,1,1,8,
8,7,{12}7-3[0.1538##0.1538],,2-6[0.1538##0.1538],,2,,5-2[0.1538##0.1538],,5,
,,,1,2,3,4,5,6,7,{6}8/4b,
{12},,,{4}5-1[0.3077##0.2308]/1-4[0.3077##0.2308],{12},5/1<6[4:1],{24},,,,,{8}3h[16:1],
,2h[16:1],{24},,{12}1,2,3,4,{3}5/1,
{12}C,{24},,,,,,,,1,2,{4}1,{8}7h[8:1],1h[8:1],
8h[8:1],,,,,8,3,7,
{6}4,{12}6,5,6,5,6,5b,4,3,2,1,
8,7,{6}6/1h[12:7],{12},,,,,2-5[0.1538##0.1538],,2,
,,,2-4[0.1538##0.1538],,4-6[0.1538##0.1538],,6-8[0.1538##0.1538],,{4}8>6[0.1538##0.3846],
{16},,,,,,7bx,8bx,1bx,2bx,3bx,4bx,5bx,6bx,{48},,,,,,,,,,,,,,,,,,{12}1/4,
,8/3,{24},,,{8}7<3[4:1]/2<7[4:1],{24},,,,,,,,,,{12}A2,
D2,A1,D1,A8,D8,{3}A7,
{12}6,3,7,2,{6}C,{12}1,2,3,8,1,2,
7,8,1,6,7,8,,,2bx,1,8b,7,
{4}6bx,{16}6/2,7/3,8/4,1-6[0.1538##0.2308]/5-2[0.1538##0.2308],,,,,,,,,{4}7,
{8}7,5,,5,{4}3,
{8}3,1,,1,7,5h[2:1],,,,,,,,,,,5,
4,3,4,5,6,5,6,
5,6,4,6,4,5,4,{24}5,4,,{12}3,
2,{6}1,(200){12}6,5,6,4,5,3,4,3,
4,5,{48},{16}4,3,2,{8}1,{24},,,,,,{12}3,6,5,
4,6,3,5,3,4,3,6,5,4,5,4,
2,4,3,4,{48},,,,,6,(180),,{16}4,5,4,3,{8}2,{24}1,8,1,
8,1,8,1,8,1,8,1,,,,,,,,,,,{8}8b/4b,8b/4b,
{4}8b-4b[6:1]/4b-2b[6:1],8b/4b,{12}3,2,1,8,7,6,
{24},,,,,,{8}6b/2b,6b/2b,6b/2b,6b-3b[4:1]/2b-7b[4:1],{24},,,,,,,,,,{12}2,
3,4,5,6,7,{24},,{8}6bh/4bh,6bh/4bh,
{4}6bh/4bh,{8}2bh,1,2bh,1,1bh,2,
{12}4b,4,4,3b,3,3,2b,2,2,1bV75b[0.265##0.2308],(260){6},
{12},,,,,,6,4,5,3,4,5,
3,4,2,3b,5,6,,,,8,1,7,
,8,,,2,8,{6}1,2b,,{2}4h[6:1],
{12}7,6,5,4/8,1,2,
3/6,7,8,1/5,4,3,2,1,8,7,6,3,
2,1,8,7/2,3,4,5,6,7,8,1,3,
4,5,6,7,8,1,{48},,,,,,{16}7,6,5/2,3,4/8,7,
6,5/1,2,3,4,5/1bh,6,7,8,1,2,3,4,5/1bh,6,7,
8,1,2,3,4,5/1bh,,,,,,,{4}Ch[1:1],
,,,,,7-5-3[4:3],
,5-3-1[4:3],
,,,,{2}2-4-6[4:3],
4-6-8[4:3],
,,{1}Cfh[4:5],
,{4},{16},Ch[16:63],
,,,,,,{4}B2h[2:7],
,B3h[1:3],,B7h[2:5],
{16},,,B6h[16:33],{1},,{8},D8/D2/A8/A1/D1,
,,,,,,,,,,,,{1}A7h[2:1]/A3h[2:1],
{4},B5fh[2:1]/B4fh[2:1],,,,,{2}7bh[4:3]/3bh[16:13],
{4},,,4,
3,2,4,3,
2,3,2,1w5[4:1],
{8},Cf,,,,,{4}8w4[4:1],
{8},Cf,,,,,,,{4}2w6[4:1],
Cf,{16},,,,6b,7,8,1,
2,3,6,7,8,1,2,3b,4,5,6,7,,,1,2,
1,2,{8}1>4[0.1154##0.2308],,,{4}8-4[8:1],8<5[4:1]/4>1[4:1],
{8},,,2-6[8:1],,1-5[8:1],,8-4[8:1],
,7-3[8:1],{24},,,,,,,,{12}2,2,4,4,6,
{4}6,{12}5/4,3/6,2/7,{4}1/8,1b-4[6:1],
{3}8-3[6:1],{6}2-4[6:1],5-2[6:1],{12},,,1-5[6:1],
,,,,,,1,,,,,8/5bh[3:1],
1,2,3,4,,,8h/5bh[3:1],1h,2h,3h,{6}4h,
{12}8/5bh[4:1],1,2,3,4,5,6,7,,,,8/2-4[6:1],
,,{6}8,{12},,{4}8/2-4[6:1],8,
8/2-4[6:1],8,{12}7/5,6,4,6,4,6,
5,3,5,3,5,3,2/4,1,8,1,8,1,
{4}8,{12}1,1,1,1,1,1h,1h,1h,1h,
{2}1h,3pp3[2:1],
{12},,,,,6qq6[12:5],{1},{16}1,
2,3,4,5/1,2,3,4,
5/1,2,3,4,5/E1,E2,E3,E4,{2}E5,
{16},,,,,8,7,6,5,4/8,7,6,5,4/8,7,6,
5,4/E1,E8,E7,E6,E5,,,8,7,6,5,4/8,1,2,3,
4/8,7,(250)6,5,4/8,1,2,3,4,2,5,2,5,2,6,1,
6,1,6,1,7,8,7,8,7,8,7,8,1b,8,1,8,
1,8,,,,,,,{4}7V14[4:3],2,
2,2,2,2V85[4:3],
7,7,7,7,
{12}4,5,3,6,2,7,1,8,,1,2,3,
4/8,1,2,3,{6}4/1,8bx-4b[8:1],{12},{4}8b/2bx-5b[8:1],
2b/7bx-4b[8:1],7b/2bx>5b[8:1],2b/1bx-5b[8:1],1b/8bx-4b[8:1],
8b/7bx-3b[8:1],7b/6bx-2b[8:1],6b/5bx-1b[8:1],5b,
{8}4b,,,4b>8[4:1],,8b<4[4:1],,4b>8[4:1],
,8b<4[4:1],,4bV68b[4:1],,8bV24b[4:1],,4bV68b[4:1],
,8bV24b[4:1],,,,,{4}7bx-3b[8:1],
2bx-6b[8:1],5bx-2b[8:1],{2}4bx-7b[8:1],
{16}8,1,2,3,{12}4,{48},,,,B6/B5/E6,6bxh[16:11],{4},,,{24},{4}7bp3b[8:1],
7b/2b>5b[8:1],2b/8bp4b[8:1],
8b/2bq6b[8:1],2b,{16}1b/5,2,3,4,5/1bx,6,7,8,
1b/5,2,3,4,5/1b,6,7,8,1b/5,2,3,4,{4}5/1bx,
{8}7,7,{4}7,{8}2,2,2,7,
2,7,2,8,1,8,{12}1,8,1,
8,1,8,1,8,1,{16}2,3,4,5,6,7,8,1,
2,3,4,5,{24}1x,8,7,6,5,4,3,2,1,8,{48},,,,,,,,,,{16}8bx,4bx,
8bx,4bx,8bx,4bx,8bx,4bx,8bx,4bx,,,,,{4}1b/8b-2b[8:1],
7b/8b-6b[8:1],1b/8b-3b[8:1],7b/8b-5b[8:1],8bx/1bx-4[8:1],
8bx/1bx-5[8:1],8bx,8bx,{8}8bx,7/1,
{4}8bx,{8}1/3,2b,{4}1/3,7x-4[8:1],
7b/2b-6[8:1],2b/5b-2[8:1],{2}5b/2b-5[8:1],
{4}6b-2[8:1],1b-6[8:1],6b-2[8:1],2b-5[8:1],
{16},,,,7,4,7,4,6,3,6,3,5,3,5,3,
4,5,6,7,(240)8,1,2,3,{4}4,{16}8b,1,7,2,
6,3,,,4,3,4,2,5,2,{8}5,7-3[8:1],7,
7/2v5[8:1],2,2/8v5[8:1],8,8/1>4[8:1],1,1,6-2[0.25##0.12],
6,(250){24}6/4-8[0.24##0.12],,,{8}4,4,{16},,,,8bx,1,8,1,
8,1,6,2,6,{48}2,,,{16}5,1,5,1,4,8b,4,8,{24}7,6,5,
(260)4,3,2,1,8,7-3[8:1],{4},,{16}7,6,5,4,
3,2,1,8,7,6,5,7b,8,1,2,3,4,5,{8}6,
{24}7b,6,5,4,3,2,1,8,{96}7,,,,,,,3,,,{32}4,5,6,7,8,1,2,3,{96},,,,,,,,,,,,,,{6}6b,
{12}3b,2,{24}3,,,1,8,7,6,5,4,2x/3x,1,{96}8,,,7,,,{32}6,5,4,3,{16}2b,{48},,,,,,,,,,,,,,8x/4x,
,,7x/3x,,,{24}6x-8-3[0.2308##2.3154]/2x-4-7[0.2308##2.3154],{48},5x/1x,{1},{4},{16},,(250){4},
,,,,,,,
C,
,,,,,,{2}C,
,C,
{4},,,E2,
{8},,,E3,,E5/C,,,{4}E1,
E8,E2,E1,
E8,E2,E7,E8,
E1,E7,{6}E1,{12},,E8,E7,
E6,E5,,,,,{4}6xh,5h,
4h,3h,4h,5h,
{12},6h,,,,,5h,4h,3h,2h,{6}1h,
{12},,,{4}8V63[1:2],{2}8b,
E
&lv_6=15
&des_6=和风moke
&inote_6=
(260){4},{1},{4},,,{24},Ch[24:47],
{1},{4},,,{16},,{24},{1}B7/B2/E3/E7/B6/B3,
{16}6/3h[1:4],5,{8}4,,,,,,,,,{4}2h[2:3],
{1},,,{4},,{24}7p2q7[8:15],
,,,,,,6,,,,,{2}5,
{8}5h[4:1],,,3,{4}4,3,
{1}6,
{16}2pp5b[16:21],3,4,5,{4}6,,,{1}8-5[16:5],
7-5-1[2:3],
{4},,,Ch[1:1],
{8},,,,,,,,1w5[4:1],
,,Cf,,,,,,,,,,,,,{4}6h[2:1],
4h[2:1],,5h[2:1],
,1h[2:1],{8},,,2h[8:3]/6h[8:15],
,,,,,,,,,,,,,,{4}Cfh[2:1],
{16},,,,,,,,E7,E8,{8}E1,,,,,,,,,,,{4}6h[4:1],
7h[4:1],{2}8h[2:1],
1h[2:1],2h[2:1],
3h[2:1],{4}4h[16:3],3xh[2:1],
{12},,,,,,6h[16:1],3h[16:1],6h[16:1],2h[12:5],{48},,,,,,,,,,,,,,,,,{16}3,
4,5,{8}6,{16},,,,8/7,1,2,3,
4,5h[16:11],,,,,,,,,,,{4}Ch[4:5],
,,,,{1}2q8[2:15]*pp3[4:19],
,,,,,,,{12},8,
4,8,4,7,3,7,3,6,2,6,
2,1,8,7,6,5,{4}4/7-3[6:1],7V13[3:1]*V53[3:1],
{12},,,,,,,4h[3:1],{4},,,{16},,{48},{16}8<7[0.2885##0.0577],
7<6[0.2885##0.0577],6>5[0.2885##0.0577],{8}5>3[0.2885##0.1731],8,
,,,6,5,6,2,5,
6,2,5,6,5,2,6,5,
6,2,5,4,2,4,3,2,
{16}3,4,3,4,{8}2,3,4,5/8,7,6,
5,{16}4/8,7,6,5,4,3,2,1,{8}7p8[8:3],,,,3,
,3/4,2,3/4,{4}5,
{8}1/2,1/2,3,4,3,6,5,7,
,7/8,7/8,6,5,7,8,6,
1,5,1,4,1,3,2,3,
2,4,2,5,2,6,2,7,
2,8,{16}2,3,4/8,7,6,5/4,3,2,1/6,7,8,1,
,,{8}1-5[8:1],{16},4v7[8:1],,,,,,,,6-2[8:1],,,,,{8}3-7[8:1],
,,,,,,{1}2>1[16:7],
{8}6,7,6,5,4,8,7,8,
1,4,3,2,,,2,3,
4,5,7,8,1,2,3,4,
6,8,{4}5,{8}5,6,8,4,
3,1,7,8,1,3,5,8,
2-5-1-4[4:3],,,4,{2}4,
{8},2,2,4,4,6,6,1,
1,6,5,4,3,4,5,6,
5,4,3,4,5,{16}3,2,{8}1,4,
5,4,{12}3,(180){24},4,,,{8}5,6,5,4,
{16}2,3,4,5,1,3,{8}1,{16},6,5,6,5,6,5,6,
{4}5,{16}3,4,3,4,3,4,3,4,{8}8,7,
5,6,{16}8,2,{8}4,3/4,{16}2,8,3,2,3,4,
5,6,7,8,1,2,{24}3,8/1b,7,6,5,4,3,{12}2,1b,,,{4}1b/4b,
{12}3b,3,,4b,4,,3b,2,,{4}2b,
{12}3b,,6b,,,,,6b,5,
7,5,6,7,5,6,,,,,1bh,2bh,
1bh,2bh,{6}1bh,{12}3bh[16:1],4b,3b,2b,1b,8b,1,2,
3,2,1,6,5,4,5,6,7,6,(260)7,1,
2,3,5,6,8,1,3,5,4,2,7,1,
5,2,7,1,{3}4,{12},4,3,4,
2,4,2,4,1,8,1,8,7,1,{6}7,
{24},,,,,,,,,,,,,1,2,3,4,5,6,7,8,1,2,3,
4,5,6,7,8,1,2,3,4,5,{48},{16}6,7,8,1,2,3,4,5,6,
7,8,1,2,3,4,5,6,7,8,1,2,3,4,5,6,
7,8,1,2,3,4,{24}5,5,6,7,8,1,2,3,4,5/1,6,7,8,1,2,
3,4,5/1,6,7,8,1,2,3,4,{12}5/1,{1},,,,,,,,,,,,,,,,,,,,,,,,,,,,,,,,,,,,,,,,,,{4},,{16},,(250){8},
{1},,,,,,,,,,,,,,,,,,,,{4},
{1},,,,,,,{4},,,(240),
{1},,{4},,{16},,(250){24},
,{1},{16},,{3},
{48},,,,,,,,,,,,,,,,(260){16}7,
6,5,4,3,2,1,8,7,6,5,7,8,1,2,3,
4,5,{8}6,{24}7,6,5,4,3,2,1,8,{96}7,,,,,,,3,,,{32}4,5,6,7,8,1,2,3,,,,,,7,
6,3,{16}4,{32}7,6,3,4,2,1,{96},,,,,,,,,,{24}1,8,7,6,5,4,2/3,1,{96}8,,,7,,,{32}6,5,
4,3,{16}2,,,,,8x/4x,7x/3x,6x-8-3[0.2308##2.3262]/2x-4-7[0.2308##2.3262],5x/1x,{1},,{8},(250){4},
,,,,,,{2},
{1},,,{8},6h[8:7],
,,{2}B6,
5h[1:1],B5,
4h[4:3],{4}B4,3h[4:3],
{8},,E2,E3,{2}E4,
{4}7,1,8,2,
1,8,3,{8}2,1,
{12}2,3h,4h,5h,6z2[3:5],,,6b,,,,,,Cfh[6:7],
E
