&title=余裕欲
&artist=稲葉曇
&first=0
&des=Neya
&lv_5=13+
&inote_5=(179)
{1},
{16}2h[8:2],,E4,C,E8,,,,,,6<3[8:7]/3,,,,,,
{16}6h[8:6],,,,,,,,,,,,,,,,
{16}4h[8:3]/5h[8:3],,,,,,,,,,,,,,,,
{16}3v4-6[8:4]/4,,,,,,,,,,,,,,,,
{16}7h[8:2],,E6,C,E2,,,,,,3>6[8:7]/6,,,,,,
{16}3h[8:6],,,,,,,,,,,,,,,,
{16}5h[8:3]/4h[8:3],,,,,,,,,,,,,,,,
{16}6-4[8:1]/5-3[8:1],,,,,,,,2,4,3,,7,5,6,,
{16}1b,,,,2x,,5,,2,,,,2x/4x^7[8:1],,,,
{16}2,,,,3x,,6,,3,,,,3x/4x-8[8:1],,,,
{16}3,,,,4x,,7,,5,,5,,6xpp4[8:4],,6,,
{16}3h[8:4],,,,,,,,,,,,2x-6[8:1]*-5[8:1],,,,
{16}2,,,,7x,,4,5,4,,7,,5x^2[8:1],,,,
{16}7,,,,6x,,3,4,3,,6,,5x-1[8:1],,,,
{16}6,,,,5x,,2,3,2,,2,,4x,,3,,
{16}46,,6,,34,,3,,64,,6,,14,,1,,
{16}7b,,2,4,3,,,,5,,4,,3h[8:2],,,,
{16}4-6[8:1],,,,4,,1-3[8:1],,,,1,,8,,,,
{16}56,,4x,5x,3hx[8:2],,,,2,,2h[8:2],,,,4,,
{16}4-1[8:1],,,,4,,5-8[8:1],,,,5,,4,,,,
{16},,7,5,6b,,,,4,,5,,6h[8:2],,,,
{16}5-3[8:1],,,,5,,8-6[8:1],,,,8,,1,,,,
{16}43,,5x,4x,6hx[8:2],,,,7,,7h[8:2],,,,5,,
{16}5,,3,,24,,3,,4,,6,,75,,6,,
{16}5b/4b,,,,3h[8:2],,,,4,,4,,2h[8:2],,3,,
{16}5,,,,4h[8:2],,,,5,,5,,3h[8:2],,4,,
{16}6,,,,5h[8:2],,,,6,,6,,4h[8:2],,5,,
{16}7>3[8:2],,,,3<7[8:2],,,,8,,1,,2,,3,,
{16}7hx[8:4]/4x,,,,E5/B4,,,,5,,5,,E7/B7,,,,
{16}8hx[8:4]/4x,,,,E3/A2,,,,3,,3,,E6/A6,,,,
{16}7hx[8:4]/4x,,,,E5/B4,,,,5,,5,,E7/B7,,,,
{16}8x-4[8:1]/4x,,,,E3/A2,,,,1,,1,,E5/B4/B5,,,,
{16}2x-8[8:1]/6x,,,,3,,,,4-6[8:1],,4,,3,,,,
{16}5x-2[8:1],,,,5-8[8:1],,,,5,,3,,7,,,,
{16}2x-8[8:1]/6x,,,,3,,,,4-6[8:1],,4,,3,,,,
{16}5x-2[8:1]*-8[8:1],,,,5,,,,3,7,3,7,3,7,3,7,
{16}4b-1[8:1],,,,8p4[8:1]*^5[8:1]/4,,,,8,,,,7p3[8:1]*^4[8:1],,,,
{16}7,,,,2^7[8:1],,2,,6^3[8:1],,6,,1,,1,,
{16}2hx[8:2]/4x,,,,B3/B4,,B3/B4,,2x-6[8:1],,,,26,,,,
{16}8hx[8:2]/5x,,,,B6/E7,,B6/E7,,8x^5[8:1]*^3[8:1],,,,8,,,,
{16}2/6V47[8:2],,,,8,,1,,2-5[8:1],,,,1-6[8:1]/2,,,,
{16}1pp8[16:5]/4,,,,7,,7,,7^4[8:1],,,,87,,,,
{16}24,,3,,45,,6,,5w1[8:1]/7,,,,5,,,,
{16}28,,3,,45,,6,,1-4[8:1]/7-3[8:1],,,,1x/7x,,,,
{16}5b-8[8:1],,,,1q5[8:1]*^4[8:1]/5,,,,1,,,,2q6[8:1]*^5[8:1],,,,
{16}2,,,,7^2[8:1],,7,,3^6[8:1],,3,,8,,8,,
{16}7hx[8:2]/5x,,,,B6/B5,,B6/B5,,7x-3[8:1],,,,73,,,,
{16}1hx[8:2]/4x,,,,B3/E3,,B3/E3,,1x/4x,,,,8-3[8:1],,7,,
{16}68,,,,8-4[8:1],,7,,68,,,,8-5[8:1],,7,,
{16}68,,,,8x^3[16:3],,2x^5[16:3],,4x^7[16:3],,,,1xw5[8:1],,,,
{16}1,,,,3bx/7bx,,,,46,,7,,56,,4,,
{16}35,,2,,3/4-1[8:1],,5,,64,,,,,,,,
{16}7hx[16:1]/8x-2^1z5^6-4[8:12],,7h[16:1],,7h[16:1],,7h[16:1],,7h[16:1],,7h[16:1],,7h[16:1],,7h[16:1],,
{16}8hx[16:1],,8h[16:1],,8h[16:1],,8h[16:1],,8h[16:1],,8h[16:1],,8h[16:1],,8h[16:1],,
{16}5hx[16:1]/1x-3^2-4-8-6^7-5[8:12],,5h[16:1],,5h[16:1],,5h[16:1],,5h[16:1],,5h[16:1],,5h[16:1],,5h[16:1],,
{16}3hx[16:1],,3h[16:1],,3h[16:1],,3h[16:1],,3h[16:1],,3h[16:1],,3h[16:1],,3h[16:1],,
{16}4x,,2,3,2,,5,4,5,,3,4,3,,6,,
{16}5x,,7,6,7,,4,5,4,,6,5,6,,4,,
{16}5x,,2,4,3,,3,4,2,,2,4,3,,5,,
{16}4x,,7,5,6,,6,5,7,,7,5,6,,3,,
{16}5x/4x,,,,2h[8:2],,,,3,,3,,2-4[8:1],,4,,
{16}5h[8:2],,,,3h[8:2],,,,4,,4,,3-5[8:1],,5,,
{16}6-3[8:1],,,,2,,2,,4,,5,,3-8[8:1],,3,,
{16}7-3[8:1],,,,1,,1,,4,,5,,2,,7,,
{16}8hx[8:2]/5x,,,,,,5,,6h[8:1],,7hx[8:1],,5x,,,,
{16}7hx[8:2]/4x,,,,,,4,,5h[8:1],,6hx[8:1],,4x,,,,
{16}3x/6x-1[8:2],,,,1-4[8:2],,,,4-7[8:2],,,,2,,,,
{16}3xqq6[8:4],,,,7hx[8:4],,,,,,,,,,,,
{16}5hx[8:2]/6x,,,,4,,5,,46,,6x,,3x,,,,
{16}4hx[8:2]/5x,,,,3,,4,,35,,5x,,2x,,,,
{16}3x^8[8:2]/4x,,,,8q4[8:2],,,,4^7[8:2],,,,7,,,,
{16}8xqq5[8:4],,,,5x^2[8:2],,,,,,,,,,,,
{16}2hx[8:4]/5x,,,,E5/B5,,,,4,,4,,E3/B2,,,,
{16}1hx[8:4]/5x,,,,E7/A7,,,,6,,6,,E4/A3,,,,
{16}2hx[8:4]/5x,,,,E5/B5,,,,4,,4,,E3/B2,,,,
{16}1x-5[8:1]/5x,,,,E7/A7,,,,8,,8,,E5/B5/B4,,,,
{16}7x-1[8:1]/3x,,,,6,,,,5-3[8:1],,5,,6,,,,
{16}4x-7[8:1],,,,4-1[8:1],,,,4,,6,,2,,,,
{16}7x-1[8:1]/3x,,,,6,,,,5-3[8:1],,5,,6,,,,
{16}4x-7[8:1]*-1[8:1],,,,4,,,,6,2,6,2,6,2,6,2,
{16}5b-8[8:1],,,,1v6[8:1]/5^2[8:1],,,,1/5-8[8:1],,,,1v6[8:1]/5^2[8:1],,,,
{16}15,,,,7-4[8:1],,7,,1-5[8:1],,1,,8,,8,,
{16}7hx[8:2]/4x,,,,B6/B5/E6,,B6/B5/E6,,7x-3[8:1],,,,73,,,,
{16}1hx[8:2]/4x,,,,B3/E3/A3,,B3/E3/A3,,1x^4[8:1]*^6[8:1],,,,1,,,,
{16}2-5-3[8:2],,2,,1,,8,,7-3-8[8:2],,7,,6,,5,,
{16}4^1[8:1],,4,,8^5[8:1],,8,,2-6[8:1],,,,62,,,,
{16}75,,6,,24,,3,,65,,6,,34,,3,,
{16}4x/6x,,17,,3x/5x,,28,,3x-6[8:1]/7x-2[8:1],,,,3x/7x,,,,
{16}4b-1[8:1],,,,8v3[8:1]/4^7[8:1],,,,8/4-1[8:1],,,,8v3[8:1]/4^7[8:1],,,,
{16}84,,,,2-5[8:1],,2,,8-4[8:1],,8,,1,,1,,
{16}2hx[8:2]/5x,,,,B3/B4/E4,,B3/B4/E4,,2x-6[8:1],,,,26,,,,
{16}8hx[8:2]/5x,,,,B6/E7/A6,,B6/E7/A6,,8x/5x,,,,1-6[8:1],,2,,
{16}31,,,,1-5[8:1],,2,,31,,,,1-4[8:1],,2,,
{16}31,,,,1x^6[16:3],,7x^4[16:3],,5x^2[16:3],,,,8xw4[8:1],,,,
{16}8,,,,6bx/2bx,,,,53,,2,,43,,5,,
{16}64,,7,,6/5-8[8:1],,4,,3s7[8:2]/5,,,,7b,,,,
{16}6x-4[8:1],,,,1-5[8:1]/6,,,,8-2[8:1]/1,,,,84,,,,
{16}3x-5[8:1],,,,8-4[8:1]/3,,,,1-7[8:1]/8,,,,15,,,,
{16}6hx[8:2]/2x,,,,B3/B4,,B7/B8,,5x-3[8:1]*-7[8:1]/1x,,,,5,,,,
{16}2hx[8:2]/6x,,,,E6/B5/A5,,E2/B1/A1,,4x-7[8:1]*-1[8:1]/8x,,,,4,,,,
{16}2-4[8:1],,8-6[8:1],,2,,8,,3-8[8:1]*-1[8:1],,,,3,,,,
{16}7-4[8:1],,8-3[8:1],,7,,8,,5w1[8:1],,,,5,,,,
{16}12,,12,,3,,4,,17,,17,,6,,4,,
{16}5x/3x,,28,,6x/4x,,71,,2x-7[8:1]/6x-3[8:1],,,,6x/2x,,,,
{16}8b-5[8:1],,,,4^7[8:1]/8^3[8:1],,,,4-1[8:1]/8,,,,8^3[8:1]/4^7[8:1],,,,
{16}84,,,,2-5[8:1],,2,,6-1[8:1],,6,,4,,4,,
{16}3hx[8:2]/7x,,,,B6/B5,,B2/B1,,4x-6[8:1]*-2[8:1]/8x,,,,4,,,,
{16}7hx[8:2]/3x,,,,E4/B4/A4,,E8/B8/A8,,5x/1x,,,,2-5[8:1],,1,,
{16}28,,,,1-5[8:1],,8,,17,,,,8-5[8:1],,7,,
{16}86,,,,7x/3x,,2x/6x,,1x/5x,,2,4,,7,5,,
{1}8xV25[22.375#32:1]/4xV61[22.375#32:1],,
{1}A1/E1/E2/A5/E5/E6/Cf,,E
