&title=厄神様の通り道 ~ Dark Road
&artist=上海アリス幻樂団
&first=0
&des=Acadm
&clock_count=4
&lv_2=2
&lv_3=6
&lv_4=10+
&lv_5=12+
&inote_2=(156){1},
,
{1}4,
{1}3,
{1}2,
{1}1,
{1}8h[1:1],
{1},
{1}1h[1:1],
{1},
{1}7h[1:1],
{1},
{1}2h[1:1],
{1},
{2}4,4,
{2}4,,
{2}5,5,
{2}5,,
{1}6h[1:1],
{1},
{1}3h[1:1],
{1},
{2}1,1,
{2}1,,
{2}8,8,
{2}8,,
{1}7h[1:1],
{1},
{1}2h[1:1],
{1},
{1}3h[1:3],
{1},
{1},
{1},
{1}6h[1:3],
{1},
{1},
{1},
{1}2h[1:3],
{1},
{1},
{1},
{1}7h[1:3],
{1},
{1},
{1},
(312){1},
(156)
{1}45,
{1},
{1},
{1},
{2}3,3,
{2}3,,
{2}6,6,
{2}6,,
{2}1,1,
{2}1,,
{2}8,8,
{2}8,,
{2}2,2,
{2}2,,
{2}7,7,
{2}7,,
{2}2,2,
{2}1,,
{2}7,7,
{2}8,,
{1}2h[1:1]/1h[1:1],
{1},
{1}8h[1:1]/7h[1:1],
{1},
{2}3,3,
{2}4,,
{2}6,6,
{2}5,,
{1}2q5[8:21]*q5[8:21],
{1},
{1},
{1},
{1}8b,
&inote_3=(156){1},
,
{1}34,
{1}45,
{1}56,
{1}45,
{1}3h[2:1]/4h[2:1],
{1}5h[2:1]/6h[2:1],
{1}3h[2:1]/4h[2:1],
{1}5h[2:1]/6h[2:1],
{1}2h[2:1]/4h[2:1],
{1}5h[2:1]/7h[2:1],
{1}2h[2:1]/4h[2:1],
{1}5h[2:1]/7h[2:1],
{1}2-5[2:1],
{4}6,6,6,,
{1}7-4[2:1],
{4}3,3,3,,
{1}1-4[2:1],
{2}6h[2:1],5,
{1}8-5[2:1],
{2}3h[2:1],4,
{1}3-8[2:1],
{4}7,7,7,,
{1}6-1[2:1],
{4}2,2,2,,
{1}4-1[2:1],
{2}7h[2:1],8,
{1}5-8[2:1],
{2}2h[2:1],1,
{1}3h[2:7]/4h[2:7],
{1},
{1},
{1},
{1}6h[2:7]/5h[2:7],
{1},
{1},
{1},
{4}3,3,3,,
{4}4,4,4,,
{4}6,6,6,,
{4}5,5,5,,
{4}2,2,2,,
{4}4,4,4,,
{4}7,7,7,,
{4}5,5,5,,
(312){1},
(156)
{1}5w1[4:11],
{1},
{1},
{1},
{2}12,34,
{2}45,56,
{2}87,65,
{2}54,43,
{4}4,4,35,,
{4}5,5,46,,
{4}3,3,4,4,
{4}5,5,56,,
{4}1,1,28,,
{4}8,8,17,,
{4}2,2,1,1,
{4}8,8,87,,
{4}3,3,2,2,
{4}1,1,18,,
{4}6,6,7,7,
{1}1-4[2:1]/8-5[2:1],
{4}2,2,3,3,
{1}4h[2:1]/5h[2:1],
{4}7,7,6,6,
{1}5h[2:1]/4h[2:1],
{4}3,3,4,4,
{4}56,56,47,,
{4}3,3,4,4,
{1}2h[2:1]/5h[2:1],
{4}24,24,24,,
{4}57,57,57,,
{1}4h[2:1]/5h[2:1],
{1}2q5[2:1]*q5[2:1],
{1}8b,
&inote_4=(156){1},
,
{2}4h[2:1],3h[2:1],
{2}2h[2:1],1h[2:1],
{2}8h[2:1],7h[2:1],
{2}6h[2:1],5>2[8:1],
{2}3h[2:3],2,
{2}4,5>3[12:1],
{2}6h[2:3],7,
{2}5,4<6[12:1],
{2}3h[2:3]/4,2,
{2}4,5>3[12:1],
{2}6h[2:3]/5,7,
{2}5,4<6[12:1],
{8}34,,2,1,8/7<4[8:1],,4,,
{4}3>8[8:1],8,7<4[8:1],4,
{8}87,,6,5,4h[4:1],,3h[4:1],,
{4}2<3[2:1],,,2,
{2}1>4[8:1]/5<8[8:1],2>5[8:1]/6<1[8:1],
{4}37,26,15,,
{2}3>8[8:1]/7<4[8:1],2<7[8:1]/6>3[8:1],
{1}1>5[2:1]/5<1[2:1],
{8}65,,7,8,1/2>5[8:1],,5,,
{4}6<1[8:1],1,2>5[8:1],5,
{8}12,,3,4,5h[4:1],,6h[4:1],,
{4}7>6[2:1],,,7,
{2}8<5[8:1]/4>1[8:1],7<4[8:1]/3>8[8:1],
{4}62,73,84,,
{2}6<1[8:1]/2>5[8:1],7>2[8:1]/3<6[8:1],
{1}8q1[2:1]/4,
{2}6h[2:1],2<7[4:1],
{2}5h[2:1],6>3[4:1],
{2}6h[2:1],2<7[4:1],
{2}5h[2:1],6,
{2}3h[2:1],7>2[4:1],
{2}4h[2:1],3<6[4:1],
{2}3h[2:1],7>2[4:1],
{4}4,4,3-6[8:1]/4,,
{8}1,1,2,2,3h[4:1],,4,,
{8}5,5,6,6,7h[4:1],,8,,
{8}1,1,2,2,3h[4:1],,4,,
{8}5,5,6,6,7<5[12:1],,,,
{8}8,8,7,7,6h[4:1],,5,,
{8}4,4,3,3,2h[4:1],,1,,
{8}78,8,7,7,6h[4:1],,5,,
{8}34,4,3,3,2>5[8:1],,6h[2:1],,
(312){1},
(156)
{1},
{1},
{1},
{4},,,45,
{2}3<6[8:1],7>2[8:1],
{4}3<6[8:1],,7h[4:1],2,
{2}2<7[8:1],6>3[8:1],
{4}2<7[8:1],,6,6,
{4}4,4h[2:1],3,3h[2:1],
{4}2,2h[2:1],1,1h[2:1],
{4}5,5h[2:1],6,6h[4:1],
{1}7>6[2:1],
{1}3<2[2:1],
{4}7p5[4:1],,,3,
{1}2<3[2:1],
{4}6q8[4:1],,4-1[8:1],,
{8}5,6,87,87,1>4[8:1],,4,,
{8}5<8[8:1],,8,,1>4[8:1],,5<8[8:1],,
{8}1,2,43,43,5<8[8:1],,8,,
{4}1>4[8:1],5<8[8:1],1>4[8:1],5,
{8}7<4[8:1],,3,3,3>8[8:1],,7p5[2:1],,
{2},4h[4:1],
{8}2>5[8:1],,6,6,6<1[8:1],,2q4[2:1],,
{2},5<8[8:1],
{8}4,3,12,12,8<5[8:1],,5,,
{8}4>1[8:1],,1,,8<5[8:1],,4>1[8:1],,
{8}8,7,56,56,4>1[8:1],,1,,
{4}8<5[8:1],4>1[8:1],8<5[8:1],4,
{8}2>5[8:1],,6,6,6<1[8:1],,2q4[2:1],,
{2},5h[4:1],
{8}7<4[8:1],,3,3,3>8[8:1],,7<4[8:1],,
{2}3,2q5[4:1]*q5[4:1],
{1}8b,
&inote_5=(156){1},
,
{4}4>2[12:1],5h[4:1],1<7[12:1],2h[4:1],
{4}6>4[12:1],7h[4:1],3>1[12:1],4h[4:1],
{4}1<7[12:1],2h[4:1],7<5[12:1],8h[4:1],
{4}5>7[2:1],6h[2:1],,,
{4}4qq4[2:1],1,4qq4[2:1],1,
{4}4qq4[2:1],1,5h[4:1],,
{4}5pp5[2:1],8,5pp5[2:1],8,
{4}5pp5[2:1],8,4h[4:1],,
{4}4>1[4:1],1p4[4:1],4>1[4:1],1p4[4:1],
{4}4>1[4:1],1p4[4:1],5h[4:1],,
{4}5b<8[4:1],8q5[4:1],5<8[4:1],8q5[4:1],
{4}5b<8[4:1],8q5[4:1],4h[4:1],,
{8}6,5,4,3,2p7[2:1],,8,,
{4}7<2[2:1],5,2<7[4:1],8,
{8}6,5,4,3,2<6[4:1],,6>2[4:1],,
{8}2pp6[2:1],,1,8,7<4[8:1],,7,,
{8}3h[1:1],,4,5,6,7,8,
{8}1,2h[8:1],3h[8:1],4h[8:1],5h[8:1],6<1[8:1],,6,,
{8}2h[8:7],,1,8,7,6,5,
{8}4>5[4:3],,,,,4,4,4,4,
{8}3,4,5,6,7q2[2:1],,1,,
{4}2>7[2:1],4,7>2[4:1],1,
{8}3,4,5,6,7>3[4:1],,3<7[4:1],,
{8}7qq3[2:1],,8,1,2>5[8:1],,2,,
{8}6h[1:1],,5,4,3,2,1,
{8}8,7h[8:1],6h[8:1],5h[8:1],4h[8:1],3>8[8:1],,3,,
{8}7h[8:7],,8,1,2,3,4,5-8[8:1],
{8},1,1q3[4:1],,,,,,
{2}8-5[4:1],7-4[4:1],
{2}6v3[4:1],5-2[4:1],
{2}4-1[4:1],3v8[4:1],
{2}2-7[4:1],1h[2:1],
{2}8-3[4:1],1v4[4:1],
{2}2-5[4:1],3-6[4:1],
{2}4v7[4:1],5-8[4:1],
{2}6-1[4:1],7h[4:1],
{4}2h[4:1],3h[4:1],4h[4:1],5h[4:1],
{4}6h[4:1],7h[4:1],8h[4:1],1h[4:1],
{4}2h[4:1],1h[4:1],8h[4:1],7h[4:1],
{4}6h[4:1],5h[4:1],4h[4:1],3h[4:1],
{4}2-6[8:1],3-7[8:1],4-8[8:1],5-1[8:1],
{4}6-2[8:1],7-3[8:1],8-4[8:1],1-5[8:1],
{4}2b-6[8:1],1-5[8:1],8-4[8:1],7-3[8:1],
{4}6b-2[8:1],5-1[8:1],4-8[8:1],3q4[4:1],
(312){2},5!<4[156#8:27],
(156)
{1},
{1},
{1},
{4},,,6,
{4}7h[2:1],8,1h[2:1],2,
{4}3h[2:1],4,5h[2:1],6,
{4}7h[2:1],6,5h[2:1],4,
{8}3h[2:1],,2,,1,1,1,1,
{16}1<5[4:1],,,,5>1[4:1],,,,1,,,8,,,7,,
{4}6p4[2:1],5,4>1[4:1],3,
{16}8<4[4:1],,,,4>8[4:1],,,,8<4[4:1],,,4,,,3,,
{4}2p7[2:1],6h[4:1],,5,
{4}6h[4:1],8h[4:1],2h[4:1],4h[4:1],
{8}6,8,2,4,6q8[4:1],,,,
{8}2h[4:1],,8h[4:1],,6h[4:1],,4h[8:1],3p2[8:3],
{2},7b,
{16}3h[8:1],,4h[8:1],,5h[8:1],,6h[8:1],,7q3[4:1],,,5,,,6,,
{16}7V13[4:1],,,5,,,6,,7>3[4:1],,,5,,,6,,
{16}6h[8:1],,5h[8:1],,4h[8:1],,3h[8:1],,2p6[4:1],,,4,,,3,,
{8}2<3[2:1],,2h[4:1],,,,2,2,
{8}3<6[8:1],,3h[4:1],,4h[8:1],5h[8:1],6h[8:1],7,
{8}8,1,2,3,4<7[8:1],,4,,
{8}2h[4:1],,3,4,5q6[4:1],,5<2[4:1],,
{8},,,,34,34,45,45,
{16}6h[8:1],,5h[8:1],,4h[8:1],,3h[8:1],,2p6[4:1],,,4,,,3,,
{16}2V86[4:1],,,4,,,3,,2<6[4:1],,,4,,,3,,
{16}3h[8:1],,4h[8:1],,5h[8:1],,6h[8:1],,7q3[4:1],,,5,,,6,,
{8}7>6[2:1],,7h[4:1],,,,7,7,
{8}6>3[8:1],,6h[4:1],,5h[8:1],4h[8:1],3h[8:1],2,
{8}1,8,7,6,5>2[8:1],,5,,
{8}7h[4:1],,6,5,4p3[4:1],,4>7[4:1],,
{2},2q5[4:1]*q5[4:1],
{1}8b,
&inote_7=(156){1},
,
{2}4>2[8:1]/5,1<7[8:1]/2,6>4[8:1]/7,3>1[8:1]/4,1/8<6[8:1],5>3[8:1]/6,3/2<8[8:1],5h[4:1]/7h[4:1],
{4}2>5[4:1],5q2[4:1],2>5[4:1],5q2[4:1],2>5[4:1],5q2[4:1],2>5[4:1],,
{4}7<4[4:1],4p7[4:1],7<4[4:1],4p7[4:1],7<4[4:1],4p7[4:1],7<4[4:1],,
{4}1>5[4:1],5<1[4:1],1>5[4:1],5<1[4:1],1>5[4:1],5<1[4:1],1>5[4:1],,
{4}8b<4[4:1],4>8[4:1],8<4[4:1],4>8[4:1],8b<4[4:1],4>8[4:1],8,,
{8}7<4[8:1],,7,3,{16}2,,,1,,,8,,7,,,6,,,5,,4,,,3,,,2,,
{8}1>4[8:1],,1,5,{16}6,,,7,,,8,,{4}1>8[4:1],,,{8}25,36,
{8}4/7<3[4:1],,3>7[4:1],,{8}7,,3,,8,7,6,5,{4}4q8[8:1],4,
{4}2<7[4:1],{8}7p2[4:1],,{4}2,5>1[4:1],1<5[4:1],5pp6[4:1],{8}1b,2b,3b,4b,
{8}2>5[8:1],,2,6,{16}7,,,8,,,1,,2,,,3,,,4,,5,,,6,,,7,,
{8}8<5[8:1],,8,4,{16}3,,,2,,,1,,{4}8<1[4:1],,,{8}74,63,
{8}5/2>6[4:1],,6<2[4:1],,{8}2,,6,,1,2,3,4,{4}5p1[8:1],5,
{4}7>2[4:1],{8}2q7[4:1],,{4}7,4<8[4:1],8>4[4:1],4qq8[8:3],,,
{2}7h[2:1],6h[2:1],5h[2:1],4h[2:1],3h[2:1],2h[2:1],1h[2:1],8p3[8:1],
{2}2h[2:1],3h[2:1],4h[2:1],5h[2:1],6h[2:1],7h[2:1],8h[2:1],{4}1-5[8:1],1b,
{4}8-5[8:1],,7-4[8:1],,6-3[8:1],,5-2[8:1],,4-1[8:1],,3-8[8:1],,2-7[8:1],,1-6[8:1],,
{4}1-4[8:1],1,2-5[8:1],2,3-6[8:1],3,4-7[8:1],4,5b-8[8:1],5,6-1[8:1],6,7b-2[8:1],7,8-3[8:1],8,
(78){64}2,3,4,5,6,7,8,1,(156){4}2b>2[4:15],(78){2},(156){1},,,
{4}7h[4:1]/1,6,8/6h[4:1],5,7/5h[4:1],4,6/4h[4:1],3,5/3h[4:1],2,4/2h[4:1],1,3/1h[4:1],8,{8}1,1,1,1,
{8}24,35,6,7,{16}8h[2:1],,,2,,,3,,4h[2:1],,,6,,,7,,8,,,1,,,1,,
{8}56,56,7,8,{16}12,,,3,,,{8}45,
{4}5qq2[2:1]/6q1[2:1],,,,
{4}1>5[4:1],5<1[4:1],1,6q1[2:1],{8}1,2,3,4,{2}5q2[8:1],
{4}8<4[4:1],4>8[4:1],8<4[4:1],4pp8[2:1],,,3b,,
{8}2/4h[8:1],3h[4:1],2,1,{16}8<5[8:1],,,3,,,2,,1v4[8:1],,,7,,,6,,5v8[8:1],,,2,,,2,,
{8}4>1[8:1],4,4,5,{16}5v8[8:1],,,3,,,2,,{4}1<1[2:1],,,{8}7,6,
{8}5v7[8:1],,4,3,2<7[8:1],,6,5,4v6[8:1],,3,2,{4}1v4[8:1],{8}1,8,
{8}7<4[8:1],,3,2,1pp5[2:1],,1,8,7h[4:1],,,,{8}46,46,46,46,
{8}7/5h[8:1],6h[4:1],7b,8,{16}1>4[8:1],,,6,,,7,,8v5[8:1],,,2,,,3,,4v1[8:1],,,7,,,7,,
{8}5<8[8:1],5,5b,4,{16}4v1[8:1],,,6,,,7,,{4}8>8[2:1],,,{8}2,3,
{8}4v2[8:1],,5b,6,7>2[8:1],,3,4,5v3[8:1],,6,7,{4}8v5[8:1],{8}8,1,
{8}2>5[8:1],,6b,7,8qq8[2:1],4,3,2h[8:3],,,,,{16}1,1,1,1,1w5[1:4],1,1,
