&title=Transcended Love
&artist=t+pazolite
&first=0
&des_1=Kai
&des_2=Kai
&des_3=Kai
&des_4=Kai
&des_5=Kai
&lv_5=14
&des_6=Kai
&des_7=Kai
&des=Kai
&inote_5=(192){4},{1},{4},,,{32}4b<8qq6[8:15]/8b>4qq2[4:13],
7/3,6/2,5/1,{1},,,{4},,{16},,{4}3x-7[2:7],
{1}8xz4b[2:3],
{4},,,,,,,,,,,E6,
E5,E4,E3,E2,
8x>4[4:7],,,E4,
E5,E6,E7,E8,
1xh[1:1],,,5,
{16}B5,B4,B3,B2,B1,B8,B7,B6,B5,B4,B3,B2,B1,B8,B7,B6,
A8/B5,A7,A6,A5,A4,A3,A2,A1,A8,A7,A6,A5,A4,A3,A2,A1,
{32}4/A8,5,6,7,8,1,2,3,4,5,6,7,8,1,2,3,4,5,6,7,8,1,2,3,4,5,6,7,8,1,2,3,
{1}4/E7h[1:1]/B7h[1:1]/B6h[1:1],
{4}1x-4[8:1],5x-8[8:1],2x-7[8:1],6x-3[8:1],
1x-5[8:1],7x-3[8:1],2x-6[8:1],8x,
8x-5[8:1],4x-1[8:1],7x-2[8:1],3x-6[8:1],
{8}1x,8,7x,6,5x-8[8:1]/4xv1[8:1],5/4,{4}4x/5x,
7x-5[8:1],8x-4[8:1],1x-5[8:1],2x-4[8:1],
6x-3[8:1],7x-2[8:1],8x-5[8:1],1x-4[8:1],
2x-7[8:1],3x-6[8:1],4x-1[8:1],5xw1[4:3],
,,,,5h[8:1]/1x-7[8:1],
5h[8:1]/1x-3[8:1],5h[8:1]/1x<7[8:1],5h[8:1]/1x>3[8:1],
5h[8:1]/1x-6[8:1],5h[8:1]/1x-5[8:1],{8}1x,7x,{4}8x<5[8:1],
4h[8:1]/8x>3[8:1],4h[8:1]/8x-5[8:1],4h[8:1]/8x-3[8:1],4h[8:1]/8x<5[8:1],
{8}4,3,2,1,8x-3[8:1],4,{4}8x,
{8}6x-1[8:1],2,{4}6x,{8}4x-1[8:1]/8x-5[8:1],4/8,{4}8x/4x,
{8}2x-7[8:1]/6x-3[8:1],2/6,{4}2x/6x,{8}8,4h[8:1],1,5h[8:1],
2,6h[8:1],3,7,{2}B7h[2:1]/B2h[16:11]/B6h[8:7]/B3h[16:17]/Ch[4:5],
{4},,,,8x/1xh[4:1],
{8}8,7,6,{16}5,1,5,1,{8}5,
6/2,{16}7,8,{8}6,{16}2,1,{8}3,{16}6,5,6,5,{8}6,
{16}8,7,,,{8}1/2,8/3,4/7,{16}6,5,,7,8,7,
8,7,{8}8h[4:1],{16}6,5,{8}4,8x/4x,1x/5x,7x/4x,2x/5x,
{16}3,4,{8}2h[4:1],5,6,7/1,{16}3,4,3,4,{8}3,
{16}2,1,3,1,{8}4,7,5/6,{16}7,8,6,8,{8}5<8[8:1],
{16}1,1,,,{8}2,3,8/4,{16}6,5,6,5,6,5,
{8}6h[4:1],E5,{4}E3,7x/3x,8x/4x,
{16}6,5,{8}7h[4:1],4,3,2/8,{16}6,5,7,5,{8}8,
3,{16}2,5,{8}2,{16}6,5,{8}7,{16}3,4,2,4,{8}1,
{16}6,6,{8}8,1/5,2/6,7/3,{16}4,6,,3,7,3,
7,3,{8}7,{16}1,8,{8}1,5x/2x,7x/4x,6x/1x,3x/8x,
{16}2,1,{8}3h[4:1],8,7,4/6,{16}2,1,{8}2,4/3,
{16}6,5,6,5,{8}7h[4:1],4,3,{16}2,1,{8}3,{16}7,8,
{8}6,5/4,3/6,6/3,7/2,2/7,1/8,1/8,
{16}1,8,1,8,1,8,1,8,1,8,1,8,{8}1-5[8:1],7h[8:13],
{32}A1f,B1,Ch[32:0],B5,{8}A5,,,,,,,,,,,{4}6pp1[1:2],
E5,
{1}E4h[4:7],
,E3h[2:3]/1xqq5[4:5],
{4},,,B5h[4:1],
{1}E1h[4:5],
{4},,5<8<5[8:11],1,
{8}2h[16:3],,,2,2h[16:3],,,2,
{16},2h[16:3],,,,,{8}6h[16:3]/1>4>1[8:11],{16},,,6h[16:3],,,,,{8}6h[16:3],
,,6,7h[16:3],,,7,
{16},8<5<8[8:11],,,{8}1,1,2,2h[16:1],,2,
{16}3h[16:1],,,3h[16:3],,,,,{8}3h[16:3],,,3,
{16},8h[16:1],,,3,8,3,8,{8}3,7h[16:1]/4h[16:1],{16},6,5,6,
5,6,,4h[4:3],,7h[16:1],,,8h[16:3],,,,,1,,1,
,1,8,7,{8}6h[8:3],2,1,{16}1,2,3,4,{8}5h[8:3],
{2}1b<5[2:3],4h[4:1],
3h[4:1],2h[4:1],
5h[4:1]/1>5[2:3],6h[4:1],
7h[4:1],8h[4:1],
A5h[4:1]/1V75[2:3],A4h[4:1],
A3h[4:1],A2h[4:1],
A5h[4:1]/1-3-5[1:1],A6h[4:1],
A7h[4:1],8h[2:1]/4h[8:3],
{4}3b-7V51[2:3],8,8,8,
8,7,6,6,
6b-2-8-5[2:3],4,4,4,
4,3,2,1,
{8}1/5b-7[8:1],1,1,1,2/4b-8[8:1],2,2,2,
7/4b-2[8:1],7,7,7,8/5b-1[8:1],8,8,8,
{16}8bx,7,6,5,4,3,2,1,{32}8/3bx,4,5,6,7,8,1,2,3,4,5,6,7,8,1,2,
{2}3/B7h[4:1]/E7h[8:3]/B6h[2:1],{4}1w5[8:1],1b,
{16}3,7,3,7,2,8,2,8,2x,3,4,5,1x,8,7,6,
1,5,1,5,2,6,2,6,2x,3,4,5,8x,7,6,5,
2,4,2,4,1,4,1,4,1x,2,3,4,8x,7,6,5,
4x/1b,5,6,7,8x/3b,7,6,5,1b/4x-8[8:1],5,6,7,{4}4b/8x,
{16}7,2,7,2,8,1,8,1,8x,7,6,5,8x,1,2,3,
8,4,8,4,7,4,7,4,7x,6,5,4,8x,1,2,3,
6,4,6,4,5,4,5,4,5x,6,7,8,5x,4,3,2,
7,1,7,1,8,8,8,8,8w4[8:1],8,8,8,{4}8,
{16}2,6,2,6,3,5,3,5,3x,2,1,8,4x,5,6,7,
3,8,3,8,4,8,4,8,4x,3,2,1,4x,5,6,7,
2,8,2,8,4,7,4,7,4x,3,2,1,8x/5b,1,2,3,
4x/7b,3,2,1,8x/5b,1,2,3,7b/4x,3,2,1,8x/5b,1,2,3,
{8}4x/8b,8,8x/E5,8,7x/3x,7,7x/E4,7,
2bx/6x,2,2x/E6,2,1x/5x,1,1/E5,1,
{12}E6,E2,E7,E3,{24},{8}7x/3x,{2}8xh[4:1]/4xh[4:1],
{16}3,7,3,7,2,8,2,8,1,1,{8}1xh[4:1],8,6,
{16}4<7[8:1],2,,2,{8}4v1[8:1],{16}2,3,4,,,6,{8}6,7/8-5[8:1],
{16}1,1h[16:3],,,,,{8}4,{16}5-1[8:1],,,2,{8}5,3,
{16}4>1[8:1],8,,8,{8}4-7[8:1],{16}6,5,4,,,2,{8}2,1/8-4[8:1],
{16}7,7h[16:3],,,,,{8}3,2-4[8:1],{16}1,8,{8}2,7,
{16}5<8[8:1],3,,3,{8}5v2[8:1],{16}3,4,5,,,7,{8}7,8/1-5[8:1],
{16}2,2h[16:3],,,,,{8}6,{16}7-4[8:1],,,1,{8}7,2,
{16}3,3h[8:1],,5,{8}5h[8:1],{16}7,8,{8}1h[16:3],{16}6,6,,1,,2,
,3,4,3,{8}4<7[8:1],1h[8:1],4b,{16}1,2,{8}3b,8,
{16}4-1[8:1],6,,6,{8}4<7[8:1],5,{16}4,,,2,{8}2h[8:1],7,
{16}3/6,3/6,,,{8}5/4h[4:1],6>5>4<5>4<5>4>2[8:3],7,8,{4}E1h[4:1]/E2h[8:3]/A1h[4:5],
{1},{24}5x,
6x,7x,8x,1x,2x,3x,4x,5x,6x,7x,8x,{4}1xw5b[8:1],1b,
{8}7/3-1[8:1],{16}4,3,{8}5,6,7-5[8:1],{16}8,1,{8}7,2-8[8:1],
{16}3,4,{8}2,5,6,7,{16}2,1,{8}4,8,
{16}8b,7,6,5,1b,8,7,6,2b,1,8,7,3b,2,1,8,
{8}7-3[8:1],3-7b[8:1],,,5,5,{16},,,,2,
1,3,8,5,6,4,7,3-8[8:1],,,6,{8}3,7,
{16}7,8,6,1,4,3,5,2,6-1[8:1],,,3,{8}6,2,
{16}2,4,3,6,5,7,1,8,2-5[8:1],,,1,{8}2,6,
7h[8:3],{16}1,1,,,{8}2,3h[8:3],{16}6,6,,,{8}7h[8:1],
{16}1,4,3,8,5,6,2,8,5h[2:1],,,2,{8}2,1,
{16}8,4,6,1,5,3,7,1,4h[2:1],,,7,{8}7,8,
{16}1b,5b,3b,8b,4b,6b,1b,5b,3bh[2:1],,,1,{8}1,8,
7,{16}2x,2x,,5x,{8}5x,{16}1x,8x,{8}7xh[8:3],{16}5x,4x,{8}3xh[8:1],
{32},4x/8x,1/5pp7[16:23],2/6,{8}7b/3b<4qq2b[8:11],
E
