&title=Tepris
&artist=Doin (Pump It Up Fiesta)
&first=0.52
&des=Master, the Inventor
&lv_6=13+
&inote_6=(144.9){4}3-8-5-3[4:3],8,5,,
(144.9){4}6-1-4-6[4:3],1,4,,
(144.9){4}2-8-5-2[4:3],8,5,,
(144.9){4}7-1-4-7[4:3],1,4,,
(144.9){8}2h[4:1],,6,3,7h[4:1],,3,6,2h[4:1],,5,3,7h[4:1],,4,6,2h[4:1],,8,3,6,,2,,7/3,,6/2,,7h[4:1]/3h[4:1],,,,
(144.9){16}3,,,4,3,,5/2,,3,4,3,,5/2,,,,
(144.9){16}6,,,5,6,,4/7,,6,5,6,,4/7,,,,
(144.9){16}4,,,5,4,,6/3,,4,5,4,,6/3,,,,
(144.9){16}4,5,4,5,3,6,3,6,2,7,2,7,1,8,1,8,
(144.9){8}1bh[4:1],,8,,8h[4:1],1,2,3,4h[4:1],,5,3,5h[8:1]/2h[8:1],,7h[8:1]/4h[8:1],,
(144.9){8}1>3[4:1],,3<5[4:1],,5<7[4:1],,7>4[4:3],,,,,,B5,B6,B7,B8,
(144.9){16}1h[4:1],,,,8h[8:1],,1h[8:1],,7h[8:1],,2h[8:1],,6h[8:1],,3h[8:1],,5h[4:1],,,,,,3h[8:1],,6h[4:1],,,,2h[8:1],,7h[8:1],,3h[4:1],,,,5h[8:1],,4h[8:1],,6h[8:1],,3h[8:1],,7h[8:1],,2h[8:1],,8x,7x,8x,7x,2x,1x,2x,1x,3x,4x,3x,4x,5x,6x,5x,6x,
(144.9){16}8b,7,8,7,1,6,1,6,2,5,2,5,3,4,3,4,
(144.9){16}2,1,2,1,3,8,3,8,4,7,4,7,5,6,5,6,
(144.9){16}8,7,8,7,1,6,1,6,2,5,2,5,3,4,3,4,
(144.9){16}2,5,1,6,8,7,8,7,8,7,1,6,2,5,3,4,
(144.9){16}5b,6,5,6,4,7,4,7,3,8,3,8,2,1,2,1,
(144.9){16}3,4,3,4,2,5,2,5,1,6,1,6,8,7,8,7,
(144.9){16}5,6,5,6,4,7,4,7,3,8,3,8,2,1,2,1,
(144.9){16}3,8,4,7,5,6,5,6,5,6,4,7,3,8,2,1,
(144.9){8}2>2[2:7],,,,,,,,,,,,,,,,,,,,,,,,,,,,,,
(144.9){8}7<7[2:7],,,,B5,,,,B4,,,,B3,,,,B2,,,,B3,,,,B2,,B4/B3,,B5/B6,,Chf[4:1],,,,
(144.9){16}7/5,,,6/4,,,5/3,,3,4,3,,4,5,4,,
(144.9){16}2/4,,,3/5,,,4/6,,5,6,5,,4,5,4,,
(144.9){16}2/4,,6,,7/5,,3,,5/4,,4,5,4,,6/3,,
(144.9){8}5<8[7:1],3,2,1,1>4[7:1],8,7,6,
(144.9){16}5/6,,,5/4,,,4/3,,3,4,3,,4,5,4,,
(144.9){16}3/4,,,4/5,,,5/6,,5,6,5,,4,5,4,,
(144.9){16}2/4,,6,,7/5,,3,,5/4,,4,5,4,,6/3,,
(144.9){8}5<8[6:1],3,2,1,E8/B8/B7,B1/E2/B2,B6/E6/B5,B4/B3/E4,
(144.9){16}5b,6,5,6,4,7,4,7,3,8,3,8,2,1,2,1,
(144.9){16}3,4,3,4,2,5,2,5,1,6,1,6,8,7,8,7,
(144.9){16}5,6,5,6,4,7,4,7,3,8,3,8,2,1,2,1,
(144.9){16}3,8,4,7,5,6,5,6,5,6,4,7,3,8,2,1,
(144.9){16}8b,7,8,7,1,6,1,6,2,5,2,5,3,4,3,4,
(144.9){16}2,1,2,1,3,8,3,8,4,7,4,7,5,6,5,6,
(144.9){16}8,7,8,7,1,6,1,6,2,5,2,5,3,4,3,4,
(144.9){16}2,5,1,6,8,7,8,7,8,7,1,6,2,5,3,4,
(144.9){16}5b,4,5,4,6,4,6,4,7,4,7,4,8,4,8,4,
(144.9){16}8b,4,8,4,7,4,7,4,6,4,6,4,5,4,5,4,
(144.9){16}5b,4,5,4,5,3,5,3,5,2,5,2,5,1,5,1,
(144.9){16}5b,1,5,1,5,2,5,2,5,3,5,3,5,4,5,4,
(144.9){16}5b,4,5,3,5,2,5,1,5b,4,5,3,5,2,5,1,
(144.9){16}4b,5,4,6,4,7,4,8,4b,5,4,6,4,7,4,8,
(144.9){16}4b,5,4,5,3b,6,3,6,2b,7,2,7,1b,8,1,8,
(144.9){16}1,2,3,4,5,6,7,8,1,2,3,4,5,6,7,8,
(144.9){8}1b>1s5b[2:7],,,,,,,,,,,,,,,,,,,,,,,,,,,,,,
(144.9){8},,6h[4:1],,B5,,5h[4:1],,B4,,6h[4:1],,B3,,5h[4:1],,B2,,6h[8:1],,B3,,6h[8:1],,B2,,B4/B3,,B5/B6,,Cf,,,,
