&title=ウィマーマ・サーガ
&artist=羽衣妈妈
&first=0.024
&des=妈&宝
&lv_7=maua
&inote_7=(150)
||娃娃1号:我要插入更多的妈妈(?)
{16},,,,,,,,,,E7h[8:7]/E3h[8:9],,,,,,
||reflectW
这里能写吗?
{16},,,,,,,,,,,,,,,,
{16}4x>1[4:1],,,,C,,,,5<8[4:1],,,,C,,,,
||
梦宝
{16}4>1[4:1],,B8,,C,,,,5<8[4:1],,,,C,,,,
||
梦宝
{16}4xq1[4:1],,,,C,,,,5p8[4:1],,,,C,,,,
||
梦宝
{16}4p1[2:1],,,,C,,C,,C,,,,6,,7,,
||
梦宝
{16}8x/1x,,8,2,7,,3,7,4>1[8:1],,6-3[8:1],3,,,,,
||
梦宝
{16}8x,,1,4,2,,5,2,6<1[8:1],,3-7[8:1],7,,,,,
||
梦宝
{16}1x,,8,2,8,,3,7,3<4p6[4:1],,6,4,,,,,
||
梦宝
{32}Ch[2:1]/B1h[2:1]/B8h[2:1],,,,,,,,,,,,,,,,4xz8[8:1],5xs1[32:3]b,,,,,,,,,,,,,,,
||妈妈
{16}2b/7b-1b[8:1],||绘宝
,,4,{8}7,3,{16}2-8b[8:1],,,5,{8}2,6,||绘宝
{16}7-1b[8:1],,,4,{8}7,3,2-5b[8:1],{16}3,4,{8}2,6,||绘宝
{16}8-6b[8:1],,,2,{8}8,3,{16}4-2b[8:1],,,6,{8}4,7,||绘宝
{16}8-6b[8:1],,,1,{8}8,2,{32}3x-7b[32:3],4x,5x,6x,7x,8x,1x,2x,3x/B3,Cf/B7,,,,,,,{16}8x-6b[8:1],||绘宝:羽衣biu!!!——————
,,2,{8}8,4,{16}5-3b[8:1],,,7,{8}5,8,||绘宝
{16}1-7b[8:1],,,3,{8}1,4,5-1b[8:1],{16}6,7,{8}5,8,||绘宝:没错,又是我!
{4}7p2b[8:1],2q7b[8:1],7p2b[8:1],2<3b[4:3],||绘宝
{1}Cf,||绘宝
{16}8,,,8,1,,8,,1,,8,,1,,8,1,
||350788022:接下来会发生什么事情我可不管。(1/13)
{16}8,,,8,1,,8,,1,,8,,1,,8,,
||350788022
(2/13)
{16}2,,,2,8,,2,,8,,2,,8,,2,8,
||350788022
(3/13)
{16}1,,,1,7,,1,,7,,1,,7,,1,,
||350788022
(4/13)
{16}1bh[8:2],,7-5[8:1],,7,,,,2,4,3,,6,5,
||一夕
{16}7,,3,4,2,,7,5,6,,2bv4[8:2]*<7[8:2],,,,,,
||一夕
{16},,,,5,,5,,3,,5-1[8:1],,6,,2-5[8:1]/5,,
||一夕
{16}3,,8-5qq4b[8:3]/2,,,,,,,,,,1b,,1b,,,,
||一夕
妈妈的膝枕~
{16}2bx-8[16:1]*V46[8:1]/8bx,,13,,,,,,5bx-1[16:1]/7bx-2-4[8:1],,46,,,,,,
||妈妈
{16}2xh[4:1],,,,4v6[8:1],,6pp7-5[4:1],,8h[4:1],,,,,,,,
||妈妈
{16}1-3[8:1],,8,,7-1[8:1],,6,,5w1[8:1],,4,,,,,,
||妈妈
{32}1bx-4[8:1],2,3,4,5-8-4[4:1],6,7,8,1,,,,5,,,,,,,,,,,,2x,,,,,,,,
||妈妈
neta了一下姨妈(?
{16}E2,E6,E4,E8,Ch[4:1],,,,B8,B6,B4,B2,E1h[4:1],,,,
||妈妈
{16}7-4[8:1],,7-1[8:1],,7-5[8:1],,7-3[8:1],,7,,7,,B8h[384:1],,,,
||妈妈
{32}2,,4,,3,,5,,4>4[4:1],,6,,5,,7,,E4,E3,E2,E1,E8,E7,E6,E5,E4/C,,,,,,,,
||妈妈
{16}2xqq5<4[2:1],,,,,,,,,,,,8b,,,,
||妈妈
{16}2-6[8:16],,,,3,4,3,,4,5,4,,3,4,3,,
||一夕
{16}2,1,2,,1,8,1,,8,7,8,,4,5,4,,
||一夕
{16}2b,,,,5,,2,1,2,,8,7,8,,2,1,
||一夕
{16}3,,7,8,6,,2,1,4,,7,8,5b,,,,
||一夕
{16}4-1[8:1]/5h[4:1],,,,,,,,4-1[8:1]/8h[4:1],,,,,,,,
||
梦宝
欸嘿嘿嘿嘿
{16}2bv4[8:1]*<7[8:1],,,,,,,,2bv4[8:1]*<7[8:1],,,,,,,,
||一夕
为啥占中间啊?!
{16}1/2,,2/3,,3/4,,4/5,,5/6,,6/7,,7/8,,8/1,,
||一夕
{16}Cf,Cf,Cf,Cf,Cf,Cf,Cf,Cf,1bx>4[8:1]*<6[8:1],,,,,,,,
||妈妈
{32}4xb,3x,2x,1x,8xV24[8:1]*>4[8:1],7x,{16}6xb,,,8<4[8:1]*V64[8:1],,,,8,,,,,E3f/B2/A2/A3,
||娃娃1号
大声喊“妈妈”!!!
{16},,6-4[8:1],,78,,6-1[8:1],,2v5[8:1],,6,,2,,,,
||妈妈
{16}8/3h[16:3],,,1h[16:3],,,2-6[8:1],,6-2[8:1],,7,,8,,1,,||娃娃1号
{16}2v5[8:1]b/8v5[8:1]b,,,,Cf,,,,1-4[8:1]/6-4[8:1],,,,,,,,
||妈妈
{16}7x/1x-5[8:1],,5>2[8:1],1x,6,,8,,1<5[8:1]*>5[8:1],,C,,1,,,,||娃娃1号
{16}4-8[8:1]/7,,6-2[8:1],5,,,,,,,1,,B4/B5/B6,,,,
||妈妈
{16}6>3[8:1]*>3[8:1],,6,,2v7b[8:1],,2,,3<6b[8:1],,3,,1,,1,,
||娃娃1号
{16}68,,1,8,2,,7,8,6h[4:1],E6,E5,E4,E3/A2/B2f/E2,,,,
||妈妈
{32}5xb,6x,7x,8x,1xV75[8:1]*<5[8:1],2x,{16}3xb,,,1>5[8:1]*V35[8:1],,,,1,,,,,E7f/B7/A7/A6,
||娃娃1号
{16}2,,1/8-4[8:1],,7,,8/1-5[8:1],,2,,1/8-4[8:1],,7,,18,,
||妈妈
{24}8xb,1xb,2xb,{64}3xb,B3f,C,B7,A7,,,,,,,,,,,,{16}5p1[8:1]*v8[8:1],,64,,5,,,,2x,,
||娃娃1号
{16}1h[8:1]/3bh[8:1],,,,5<6-2[8:1]*v2[8:1]/6bh[8:1],,,,5bxv8[8:1]b,,,,,,,,
||妈妈
{16}2-5[8:1]/1-6[8:1],,,,1/2,,,,7-4[8:1]/8-3[8:1],,,,7/8,,,,||绘宝
水一下
{16}2V47[4:1],,1,,7V52[4:1],,,,2w6[8:1],,,,,,,,
||妈妈
{16}3h[8:1]/7,,,,4h[8:1]/5,,,,3h[8:1]/7,,,,1/4h[8:1],,,,
||
梦宝
我也水一下
{16}13,,28,,17,,68,,2,5,4,7,1-5[8:1],6,3,8,
||妈妈
{16}1b<6[8:1],,,,1>4[8:1],,,,1w5[8:1],,,,1,,,,
{16}2-5[8:1]/6-1[8:1],,,,2/6,,,,4-1[8:1]/8-5[8:1],,,,4/8,,,,
{8}3/4,2,1/7,6,5/4,3,2/8,7,||绘宝:再水一下
{16}6,1,4,3,8xpp5[8:3],2xqq5[16:5],6x,5x,{2}8bx,||绘宝
{96}4x/5x,,,,3x/6x,,,,2x/7x,,,,1x/8x,,,,,,,,,,,,B6h[4:1]/B7h[4:1]/A6h[4:1]/A7h[4:1]/D7h[4:1]/E7,,,,,,,,,,,,,,,,,,,,,,,,1v4[8:1],,2,,,,3,,,,,,,,,,,,,,,,,,8v5[8:1],,7,,,,6,,,,,,,,,,,,,,,,,,
||妈妈
{32}2v1[8:1],3,4,,,,,,7v5>4-8-6[8:3],6,5,,,,,,E2h[4:1],,,,,,,,,,,,,,,,
||妈妈
{96}2x/B5,,,,,,,,,,,,,,,,,,,,,,,,6,,,,,,,,7h[12:2]/5,,,,,,,,,,,,,,,,4-7[8:1],,,3,,,2,,,,,,,,,,,,,,,,,,8-5[8:1],,,1,,,2,,,,,,,,,,,,,,,,,,
||妈妈
{32}4<7[8:1],3,2,,,,,,1s5[4:1]b*z5[4:1]b,2,3,,,,,,,,,,,,,,,,,,,,,,
||妈妈
{32}1x-5-3[4:1],2x/8x,3x/7x,4x/6x,{8}5x,{4}3-7[8:1],2<6[8:1],5q2[8:1],5/6x,||绘宝
{12}8/2x,7,6,{4}5xq1[6:1]*v8[6:1],5b>3[6:1],2b,{12}1,8,2,6,5,7,3h[8:2],,,||绘宝:最后一水!(死
{16}6pp5[4:1],,,,4qq5[4:1]/6,,,,4<6q3b[8:1],,,,,,,,
||
梦宝
欸嘿我没死
{24}3-1[8:1]/7,,,,4,,5-7[8:1],,,,4,,3-1[8:1],,,,4,,5-7[8:1],,,,4,,
||霓
{24}3-1[8:1],,,,4,,5-7[8:1],,,,4,,5-2[8:1]*-8[8:1],,,,,,5,,,,,,
||霓
{24}4-2[8:1]/8,,,,5,,6-8[8:1],,,,5,,4-2[8:1],,,,5,,6-8[8:1],,,,5,,
||霓
{24}4-2[8:1],,,,5,,6-8[8:1],,,,5,,4,,4,,4,,3b/6b,,,,,,
||霓
{24}4-1[8:1],,,,3,,5-8[8:1],,,,6,,4-1[8:1],,,,3,,5-8[8:1],,,,6,,
||霓
{24}4-1[8:1]/5,,,,3,,5-8[8:1]/4,,,,6,,4b<7[8:1]*>1[8:1]/5,,,,,,4b,,,,,,
||霓
{24}4>1[8:1]/7,,,,3,,5<8[8:1]/4,,,,6,,4>1[8:1]/5,,,,3,,5/4,,,,6,,
||霓
{24}2,7,2,7,2,7,3,6,3,6,3,6,4,5,6,7,8,1,2,3,4,5,6,7,
||霓
{16}8bx-5b[8:15]/1bx-4b[8:15]/E1f,,,,,,,,,,,,,,,,
||霓
{16},,,,,,,,,,,,,,,,
||霓
{16},,,,C,,,,,,,,,,,,
||霓
&
reflectW
{16}4x-8v2-6[8:9]/5x-8>1-4<5[8:9],,,,,,,,,,,,,,,,
||霓
{16},,,,,,,,,,,,,,,,
||霓
{24}E2h[4:1],,,,,,,E3,E4,E5,E6,E7,E8,A1,A2,A3,A4,A5h[384:1]f,,,,,,,
||
梦宝
{16}4hx[8:1],,5h[8:1],,3,4,3,,25,,6,5,6,,7,5,||reflectW
{16}6hx[8:1],,4h[8:1],,6,5,6,,74,,3,4,2,,2,4,||reflectW
{16}3hx[8:1],,5h[8:1],,2,4,3,,15,,6,5,7,,7,5,||reflectW
{16}6hx[8:1],,4h[8:1],,7,5,6,,84,,3,4,2,,1,8,||reflectW
{16}2hx[8:1],,5h[8:1],,4,6,5,,3/E8f,,6,4,5,,3,3,||reflectW
{16}7hx[8:1],,4h[8:1],,5,3,4,,E8f/2,,1,7,,5,5,4,||reflectW
{16}4x,,36,,2,1,2,,3/E8f,,6,5,6,,7,8,
||reflectW
{16}7x,,16,,3,4,2,,4/E8f,,6,5,7,,3,,
||末晨
&
reflectW
/拜谢
{16}4x^1^4^1^4^1^4^1^4[4:30]/5x^8^5^8^5^8^5^8^5[4:30],,,,,,,,,,,,,,,,
||末晨
/拜谢/拜谢/拜谢
{16},,,,,,,,,,,,,,,,
||末晨
/拜谢/拜谢/拜谢
{16},,,,,,,,,,,,,,,,
||末晨
/拜谢/拜谢/拜谢
{16},,,,,,,,,,,,,,,,
||末晨
/拜谢/拜谢/拜谢
{16},,,,,,,,,,,,,,,,
||末晨
/拜谢/拜谢/拜谢
{16},,,,,,,,,,,,,,,,
||末晨
/拜谢/拜谢/拜谢
{16},,,,,,,,,,,,,,,,
||末晨
/拜谢/拜谢/拜谢
{16},,,,,,,,,,,,,,,,
||末晨
/拜谢/拜谢/拜谢
/续标识/续标识/续标识
{16}4h[1:6]/5h[1:6],,,,,,,,2x,,,,2x,,,,
||妈妈
手被锁了哈哈哈
{16}1>6[2:1],,,,,,,,,,,,,,,,
||妈妈
{16}7,,,,7,,,,7,,,,7,,,,
||妈妈
{16}8<3[2:1]b,,,,,,,,,,,,,,,,
||妈妈
{16}E2,,E3,,E4,,E5,,E6,,E7,,E8,,E1,,
||妈妈
{16}D2,,D3,,D4,,D5,,D6,,D7,,D8,,D1,,
||妈妈
{16}1/8,4/5,1/8,4/5,1/8,4/5,1/8,4/5,1/8,4/5,1/8,4/5,1/8,4/5,1/8,,
||一夕
向大佬磕头
{16}4/5,,,,4-2[8:1]/5-7[8:1],,,,4-8[8:1]/5-1[8:1],,,,4-2[8:1]/5-7[8:1],,,,
||350788022
(5/13)
{16}4w8[1:1]/5w1[1:1],,,,,,,,,,,,,,,,
||350788022
(6/13)
{16},,,,,,,,,,,,,,,,
||350788022
(7/13)
{16}5x,5x,5x,5x,5x,5x,5x,5x,5,5,5,5,5,5,5,5,
||350788022
(8/13)
{16}5b,5b,5b,5b,5b,5b,5b,5b,5bw1[8:1]b,5b,5b,5b,{32}5b,B5,Cf,B1,A1,,,,
||350788022:对不起妈妈,孩子对您犯错了。
(9/13)
末晨Re:没关系,妈妈,会宽恕一切。(?)
{16}4/7-5[8:1],,,8,7,,1,,2-8[8:1]/B6,,3,,4/A2,,,,
||妈妈
{16}A7/D7/A6/B7/B6/E7f,,3,,4-1[8:1],7,,,2-5-1[16:3],,5,,6,,7,,
||娃娃1号
{16}2/8-3[8:1],,,4,8<6[8:1],,5,,8,,,,24,,1,,
||妈妈
{16}3,4,5,6,1,2,3,4,57,,46,,35,,24,,
||娃娃1号
{16}2h[8:1],,4,3,5<8[8:1]*v3[8:1],,7,,,,,,12,,,,
||妈妈
{16}6V48[4:1],1,4qq5[4:1],,3,,C,,,,E6/B6/B5,,E8/B7/B8/B3/B4/E4,,,,
||娃娃1号
{16}4>1[8:1]/8<5[8:1],,,,8q4[8:1]/4q8[8:1],,,,4>1[8:1]/8<5[8:1],,,,,,,,
||妈妈
{16}5,3,8,,4,6,1,,5,1,6,2,7,3,4,8,
||娃娃1号
{16}38,,6,5,7,,2,1,3-8[8:1],,47,,A3,,,,
||妈妈
{16}A6/D6/A5/B6/B5/E6f,,18,,8<7v2b[8:1]/1>2v7b[8:1],,7-5>4b[8:1]/2-4<5b[8:1],,,,,,,,B6/B3,,
||娃娃1号,歌词“初生牛犊”
{16}7,,3,4,2,,8,1,7,8,6,7,5q2[8:1],,,,
||妈妈
{16}8x,7,6,5,2x,1,8,7,4x,3,2,1,6b,5,4,3,
||娃娃1号
{16}6>4-7[4:1],,,8,6,,2,,4xw8[8:1],,4x,,,,,,
||妈妈
{16},,7<3[8:1],,3<7[8:1],,7p3[8:1],,8,,2h[4:1],,,,7x,,
||娃娃1号
{16}1>3[8:1],,,6,1,,8,,7-1[8:1]/4-8[8:1],,,,,,,,
||妈妈
{16}18,,12,,23,,34,,6,4,6,3,6,2,6,1,
||末晨
{16}5bw1[4:2],,,,,,,,,,,,,,,,
||末晨
总算找到我能塞的地方了啊啊啊啊
{16}35,,3,4,2-5[8:1],,2,,8,,8,,1b/7b,,,,
||末晨
{16}1-4[8:1],,,,8,,8,,4/8,,3/7,,2/6-8v1-3[4:3],,,,
||350788022:我没招了......
(10/13)
{16}4,,3,,2,,1-3[8:1],,,,,,,,,,
||350788022
(11/13)
{16}6-8[16:3],,,8-4[16:3],,,4-2[16:3],,1,,1,,1V36[8:5],,,,
||MWHxmj:N押"空无一人"(1/13)
{16}8,,E8,,B7,,B8,,C,,B6,,,,4,,
||MWHxmj:押"在臂弯里"(2/13)
{16}3-8[8:1],,,5,3,,7,,6/1,,5,,2,,6,,
||MWHxmj(3/13)
{16}5h[4:1]/3,,3,,3,,6/3,7,8h[4:1]/3,,3,,3,,7/3,6,
||MWHxmj(4/13)
{16}5h[4:1]/3,,,,,,1qq3<7[1:1],,,,,,,,,,
||MWHxmj:押了个"宝宝"(5/13)
{16},,,,,,,,,,,,,5<6-1>2[4:3]*<6-3>2[4:3],,,
||MWHxmj:"叫喊"(6/13)
{16},,,,,,,,,,,,,,,,
||MWHxmj(7/13)
{16},3pp6>3[4:3],,,,,,,,,,,,,,,
||MWHxmj:"看着"(8/13)
{16},,,,8,,,,7>3v5[2:1],,,,,,,,
||MWHxmj:两个问句(9/13)
{16},,,,,,,4v2<6[2:1],,,,,,,,,
||MWHxmj(10/13)
{16},,,,,,,,,,6>3[32:3],,E8/E2,,,,
||MWHxmj:笑脸押"太好了"(11/13)
{16}1,,1,,1,,1,,1x,1x,1x,1x,1x,1x,1x,1x,
||350788022:写得我脑壳疼......话说楼下的返璞归真是什么?
(12/13)
{16}1x-3[8:1],,,8x,1x,,7xp3[8:1],,6xq2[8:1],,,,,,,,
||
梦宝
{16}8-6[8:1],,,1,8,,2q6[8:1],,3p7[8:1],,,,,,,,
||
梦宝
后面应该会写出返璞归真的,嗯
{16}1x-3[8:1],,,8x,1x,,7xp3[8:1],,6xq2[8:1],,,,,,,,
||MWHxmj:这两行直接复制了,懒得改(12/13)
{16}8-6[8:1],,,1,8,,2q6[8:1],,3p7[8:1],,,,,,,,
||MWHxmj(13/13)
{16}56,,7,,34,,2,,56,,8,,34,,1,,
||reflectW
{16}45,,78,,45,,12,,56,,18,,34,,18,,||reflectW
{16}3,4,3,4,2,5,2,5,1,6,1,6,8,7,8,7,||reflectW
{16}2bx,1,2,8,2bx,7,2,6,2bx,5,2,4,2bx,3,2,1>8b[4:2],||reflectW
{16},,,,,,,,,,,,,,,,
{16},2xqq5[4:1],,,,,,,,,,,,,,,
||350788022:baka
(13/13)
E
