&title=奇縁ロマンス
&artist=ナナヲアカリ
&first=-1.026
&des=今日明日的过客,也能留下一段小小的注脚,时光无情流动,在那金色眼眸中映出的倒影终将逝去,至少如今仍能将真心藏入笑闹。
&wholebpm=103.000
&lv_5=13+
&des_5=
&inote_5=(103)
{1},
{16}3v2[12:2],,,,
,,,,
6v7[12:2],,,,
,,,,
{16}2^4[8:1],,,,
5^7[8:1],,,,
4v5[12:2],,,,
,,,,
{16}6pp7[12:2],,,,
,,,,
3qq2[12:2],,,,
,,,,
{16}7-3[8:1],,,,
3-7[8:1],,,,
1v4[8:1]*v6[8:1],,,,
,,,,
{24}3b/5b-7[48:5],,,,,4,
{16}5,,2h[8:1],,
{24}4h[8:1],,,3h[8:1],,,
{16}5h[8:1],,1,,
{16}7-4[8:1],,8,,
1qq5[12:4],,2,,
3^1[12:1],,,,
3,,,,
{24}6b/4b-2[48:5],,,,,5,
{16}4,,7h[8:1],,
{24}5h[8:1],,,6h[8:1],,,
{16}4h[8:1],,8,,
{16}2-5[8:1],,1,,
8-4[8:1],,7,,
6q2[8:1]*v1[8:1],,,,
,,,,
{24}4h[24:5]/6b,,,,,5,
3,,3,6,,6,4,,4,5,,5,
2^4[12:1],,,2,,,
{24}6h[24:5],,,,,4,
5qq3[8:1]*pp7[8:1],,,46,,,
,,,,,,
8<3[12:2],,,1,,,
{16}2q1[12:2],,,,
8<3[12:2],,,,
2q1[12:2],,,,
8<2[8:2]*p2[8:2],,,,
{16},,,,
{24},,,35,,4,
{16}6^3[8:1],,,,
1,,,,
{24}7h[24:5]/1b,,,,,3,
5,,5,2,,2,6,,6,3,,3,
5-7[12:1],,,5,,,
{24}2h[24:5],,,,,8,
1q6[8:1]*p4[8:1],,,28,,,
,,,,,,
3>7[8:1],,,4,,,
{16}5h[16:3],,,6h[16:3],
,,7,,
4h[16:3],,,3h[16:3]
,,,2,,
{24}5V31[8:1],,,,,,
56,,,7,,,
8p4[8:1],,1,,,2,
8b,,,2,,,
{24}3,,3,5,,5,
4h[8:1],,,6,,6,
5,,5,4h[8:1],,,
3,,3,5,,5,
{16}7-3[8:1],,8,,
6-2[8:1],,5,,
1>4[8:1],,,,
1b,,7,,
{24}6,,6,4,,4,
5h[8:1],,,2,,2,
4,,4,6h[8:1],,,
7,,7,1,,1,
{16}6q2[8:1],,5,,
6V48[12:2]/2V48[12:2],,4,,6b/2b
,,,,
{24}2bs6[8:1]/1bz5[8:1],,,3b/8b,,,
{16}2b/1b,,,,
{24}7-3[12:1],,5,3-7[12:1],,1,
{16}7,,,,
{24}3h[12:1],,4,2,,2,
{24}8-5[12:1]*-6[12:1],,,8-2[12:1]*-3[12:1],,,
{16}8-4[12:1],,8,,8
,,,,
2bq7[8:1]/6bq3[8:1],,1b/5b,,
{16}2b/6b,,,,
{24}2-6[12:1],,4,6-2[12:1],,8,
{16}2,,,,
{12}7^5[12:1],8,8,
{12}7/1^3[12:1],8,8,
1/7p2[8:1],8,8,
{16}1b/7b,,,,
{24}7bz3[8:1]/8bs4[8:1],,,6b/1b,,,
{16}7b/8b,,,,
{24}2-5[12:1],,4,6-1[12:1],,8,
{16}2,,6,,
{24}2h[12:1],,4,3,,3,
{24}5-8[12:1]*^8[12:1],,,5-2[12:1]*^2[12:1],,,
{16}5w1[12:1],,5,,5
,,,,
7bp1[8:1]/3bp5[8:1],,8b/4b,,
{16}7b/3b,,,,
{24}7-4[12:1],,5,3-8[12:1],,1,
{16}7,,3,,
{12}6^8[12:1],5,4,
{12}6/3^1[12:1],4,5,
3/6^8[12:1],5,4,
{16}3b^1[12:1]/6b,,,,
{24}7bpp4[12:9]/3b,,,,,,
{16}4,,,,
4,,,,
3,,3,,
2,,,,
{16}2bV47[12:2]/7b-1[12:1],,,,
7bV52[12:2]/2b,,,,
{12}1,8,7,
{16}6<4[4:1],,,,
{16}4,,5,,
5>7[4:1],,,,
{12}7,6,5,
{16}4h[8:1],,8b,,
{16}7bV52[12:2]/2b-8[12:1],,,,
2bV47[12:2]/7b,,,,
{12}8,1,2,
{16}3h[8:1],,,,
{12}87,6,5,
12,3,4,
{16}1p4[8:1]/8q5[8:1],,,,
1b/8b,,,,
{16}2b>7[12:2]/7b^1[12:1],,,,
7b<2[12:2]/2b,,,,
{12}1,8,7,
{16}6pp2[4:1],,,,
{16}2,,3,,
3qq7[4:1],,,,
{12}7,6,5,
{16}4h[8:1],,1,,
{16}7b<2[12:2]/2b^8[12:1],,,,
2b>7[12:2]/7b,,,,
{12}8,8,1,
{16}1h[8:1],,,,
{12}1/2,38,47,
78,16,25,
{16}2^7[8:1]/7^2[8:1],,,,
2q2[4:2]/7p7[4:2],,,,
