&title=Synchronize
&artist=causeluve
&first=0.5
&des=Noscura
&wholebpm=150
&clock_count=4
&lv_5=14
&des_5=
&inote_5=(150)
{1},,,,
{4}4qq7[8:7]/5,,,,6h[2:1],,,3^4-6^5s1[8:11]/5,,,,,,,,,
5pp2[8:7]/4,,,,3h[2:1],,,5V38[8:7]/6V41[8:7],,,,,
{24}E8,E7,E6,,,,E2,E3,E4,,,,
{8}6h[4:1],,,,2/4qq5[16:7],,6,,7x,,8h[8:1],,
3,4,3-5[6:1],,5x,,6h[8:1],,
7/5pp3[16:7],,3,,2x,,1h[8:1],,4,2,4-6[6:1],,3x,,
4h[8:1],,1-5-2[8:3]/7,,6,,7x,,8h[8:1],,3,5,1,7,3,1,5,7,
3x^2^1^8^7^6^5^4^3b[8:9],,,,,,,,,,,,
{24}B8,C,B4,,,,
{16}1xh[4:1],,,,8bh[16:3],,,2h[16:3],,,4,,,5,3,,,4/6,,,
7h[16:3],,,1h[16:3],,,4,2-4[8:1],4,,,5x,,,7,,
8xV64[4:1],,4,,2x,,,1v6[16:3],,,5,,,7x,,,
8h[16:3],,,6h[16:3],,,7,5-2[6:1],7,,,E7,,,B8,,
1x^4[16:3],,,,B4,,,,5v2[16:3],,,,B6,,,,
7-4[16:3],,,,B3,,,,1-5[16:3],,,,B8,,,,
6q2[16:3],,,,B5,,,,4^7[16:3],,,,B3,,,,
2-6b[8:1],,,,C,,,,4x,5x,,5x,4x,,3,,
1/2-4[8:1],,,,1,,,,1-5[8:1]/4,,,,3x,,,,
3-1[8:1]/4,,,,4,,,,1/4-8[8:1],,,,2x,,,,
2/7-5[8:1],,,,1,,,,8-4[8:1]/5,,,,5x,,,,
3/6-8[8:1],,,,4,,,,5-1[8:1]/8,,,,7x,,,,
6/E1/B1,,6,,5/E3/B3,,5,,2/B7/E7,,2,,1/B5/E5,,1,,
2x,4,2,4,3x,1,3,1,2,8,2,8,1,7,1,7,2,6,5,6,1,5,4,5,
{32}2,3,4,5,6,7,8,1,2q5^6^7^8^1^2b[16:10],3,4,5,6,7,8,1,
{16}2x,,,,,,,,Ch[4:1],,,,,,,,
3/5,,1/7,,2/6^1b[8:1],,2/6,,
{32}2b,3,4,5,
{16},,8h[8:1],,4h[8:1],,6,2h[8:1],,8,1-5b[8:1],,2,,
1/7x-4[8:1]*z3[8:1],,,,,,,,
2x-4[8:1],,,5,,,6,6,5x-2[8:1],,,7,,,8,8,
{24}1x,2,3,4,5,6,E2,E3,E4,E5,E6,E7,
{16}1xh[384:1],1xh[384:1],1h[384:1],1h[384:1],
1h[384:1],1h[384:1],1h[384:1],1h[384:1],
2,,8,,3/7^4b[8:1],,3/7,,
{32}4b-8b[8:1],3,2,1,
{16},,1x,,2h[8:1],,1,3h[8:1],,8,4-8[8:1],,6,,4x/5xs1[6:1],,,,,,,,
2,2,8,8,3,3,7,7,5,5,1,1,3,3,5,5,7,7,3,3,1,1,5,5,2q6b[8:1]*p6[8:1],2,6,,,,,,
3x/5x,,6,,4-8b[8:1]/7h[8:1],,,,2xbh[16:1]/Cf,,2h[16:1],,3h[16:1],
6x,5,7,2x,1,3,8,5x,7,2,6,{32}8b^5b[8:1]*V64b[8:1],1,2,3,
{16},,,,,,2x,4x,1,8,{24}E3,E4,E5,,,,{32}7xb/1xb-5[10:1],6,5,4,,,,,
{24}A6,E7,E8,8xh[4:1],,,,,,,,,2h[8:1]/6h[8:1],,,,,,
{32}1b-5[8:1]/5b-1[8:1],2/6,3/7,4/8,,,,,
{16},,,,3h[8:1],,4x,,2xh[16:1]/5h[16:1],,3h[16:1]/7xh[16:1],,
8b,4,6x,1,5,3,7b,4,6x,2,4,3,1b,4,6x,2,8bv3[8:1]*q4b[8:1],,,,,,,,
6xh[16:6],,,{32}A7,A8,A1,A2,,,,,,,
{16}3h[16:3],,,{24}4x,5x,6x,7x,8x,
{32}1xb/2xbqq6<4b[16:13],B2,Cf,B6,,,
{24},,,,
{16},,,,,,,,,,,,
6h[8:1],,5,,5,6,,3,4,2,4,3,4,,4/5,,
6h[8:1],,7,,7,8,,2,1,3,1,2,1,,1/8,,
6,5,7,,2,4,3,,6,5,7,,2,1,3,,
E7,B5,B8,,E3,B4,B1,,E6,E7,E8,,E4,E3,E2,,
6h[8:1],,5,,5,6,,3,4-1[8:1],,5,,4/6,,,,
2h[8:1],,1,,1,2,,7,8-5[8:1],,1,,8/2,,,,
3h[8:1],,,,2/4,,3,,6h[8:1],,,,5/7,,8,,
1/2xz6[4:1],,,,,,,,8x-4b[6:1],,,,,,,,
3-1[8:1],,,,4,,,,5-3[8:1],,,,6,,,,7-5[8:1],,,,8,,,,1-7[8:1],,,,2,,,,
3^8[8:1],,,,4,,,,5^2[8:1],,,,6,,,,7^4[8:1],,,,8,,,,1^6[8:1],,,,2,,,,
3-6[8:1],,2,,3/1x,,8,,4^1[8:1]/7^4[8:1],,8,,4x/7x,,,,
5^8[8:1],,4,,3x/5,,2,,1-4[8:1]/6-1[8:1],,2,,1x/6x,,,,
8x,8,4,4,6x,6,2,2,
{32}5x,4,3,2,1,8,7,6,5x/1xw5b[4:1],2,3,4,5,6,7,8,
{16}1x,,,,,,,,Chf[4:1],,,,E7/E3/B7/B3/B6/B2,,,,
1x-5[8:1],,6,,1,,7,,8x-6[8:1],,6-1[8:1],,B3h[8:1],,,,
4x-8[8:1],,8,,4,,7,,6x-8[8:1],,8-5[8:1],,B3h[8:1],,,,
2x-6[8:1],,4,,2,,5,,7x-5[8:1],,5-8[8:1],,B3h[8:1],,,,
1x-5[8:1],,8,,1,,7,,6x-4[8:1],,4-7[8:1],,B3h[8:1],,,,
2x-6[8:1],,7,,2-4[8:1]/6,,5,,2-6[8:1]/6,,8,,
2x/7x-3[8:1],,8,,7x-5[8:1]/3x,,4,,3/7-3[8:1],,2,,3/7,,4,,7x/3,,2,,
4-8[8:1],,3,,2x/4,,2,,3,,3,,6xp4>7b[4:3],4,8,2,6x,,,,,,,,,,,,
3h[8:1],,,,2b,5,3,8,4,7,1,5,2x,6,4,8,3,7,1,6,
2x,4,3,7,4,6,1,5,2x,8,3,7,4,5,3,6,
2b,5,3,8,4,7,1,5,2x,6,4,8,3,7,1,6,
2b,4,3,7,4,6,1,5,2x,8,3,7,4,5,3,6,
2b,1,3,7,8,6,2b,1,3,7,8,6,4b,5,3,6,
2b,1,3,6,5,7,2b,1,3,6,5,7,1b,8,2,7,
3b^8b[8:1],,4x,,B5,,B7,,
6b-1b[8:1],,5x,,E5,,B3,,
2bv5b[8:1],,1x,,2/8b-3b[8:1],,7x,,4bw8b[8:1]/8,,,,4b,,,,
{32}2xbv4V68[8:13]*-4V68[8:13]/6xb,3x/5x,4x,,,,,,
{4},,,,,,,3-8-5-2-6b[8:13],,,,,,,,
1xv4[8:13]/7xv4[8:13],,,,,,,,
6<2v4b[8:13],,,,,,,,
E
