&title=妖怪寺へようこそ
&artist=上海アリス幻楽団
&first=0.03
&des=甜蜜蜜
&lv_5=13+
&inote_5=(158)
{4},,,
{16}6,5,6,,
{16}4h[4:1]/3,,,,,,4h[4:1]/5,,,,,,4h[4:1]/2,,,,,,4h[4:1]/6,,,,,,{8}7qq1[8:3]/2h[4:1],,7-3[8:1],,,,{16}2,4,3,,
{16}5h[4:1]/6,,,,,,5h[4:1]/4,,,,,,5h[4:1]/7,,,,,,5h[4:1]/3,,,,,,{8}2pp8[8:3]/7h[4:1],,2-6[8:1],,,,{16}7,5,6,,
{16}4h[4:1]/3,,,,,,4h[4:1]/5,,,,,,4h[4:1]/2,,,,,,4h[4:1]/6,,,,,,{16}73,,6,5,7,,3,4,{16}2h[16:3],,,4h[16:3],,,3,,
{16}5h[4:1]/6,,,,,,5h[4:1]/4,,,,,,5h[4:1]/7,,,,,,62,,3,4,3,4,{8}2>5[8:1],6,2,7-3[8:1],4,7,2,6,
{4}
{16}53,,2h[8:1],4h[16:3],,,3,,5h[8:1],1h[16:3],,,4,,3h[8:1],5h[16:3],,,2,,4h[8:1],3h[16:3],,,
{16}5,2,,6,5,6,,3,8,4,7,5,6,,73,,
{16}46,,7h[8:1],5h[16:3],,,6,,4h[8:1],8h[16:3],,,5,,6h[8:1],4h[16:3],,,7,,5h[8:1],6h[16:3],,,
{16}4,7,3,,5,,6,,3,4,2,4,3,,62,,
{16}53,,2h[8:1],4h[16:3],,,3,,5h[8:1],1h[16:3],,,4,,3h[8:1],5h[16:3],,,2,,4h[8:1],3h[16:3],,,
{16}7,5,6,4,5,3,4,2,26,,,84,,,73,,
{16}46,,7h[8:1],5h[16:3],,,6,,4h[8:1],8h[16:3],,,5,,6,,(156){16}2,5,4,7,8-4[8:1],,,,87,,{16}6,6,3,,15,,2,4,3,5,4,6,5h[8:1],,
{16}7-4[8:1],,,,8,,,,1^6[8:1],,,,2,,,,3-8[8:1],,,,4,,,,5^2[8:1],,,,6,,,,
{8}7h[4:1],,5h[4:1],,4h[4:1],,2h[4:1],,{4}1s5[2:1],4,3,{8}2,6,
{16}8-3[8:1],,,,7,,,,6^1[8:1],,,,5,,,,4-7[8:1],,,,3v6[8:1],,,,7<4[8:1],,,,2qq5[4:3],,,,3,,,,4,,,,5,,,,6,,6,,7,5,6,4,5,3,4h[8:1],,1-5[8:1]*>4[8:1],,,,1b,,,,
{16}7<4[8:1],,6,1,7,,3,,2>5[12:1],,3,8,2,,6,,8-4[8:1],,7,3,8,,2,,6h[8:1],,4,5,3,4,2,,
{16}15,,6,5,7h[8:1],,3,4,2h[8:1],,6,4,8h[8:1],,3,5,{16}1>4[8:1],,,,8,,,,7qq6[8:2],,,,1,,2,,
{8}3v8[8:1],,7>2[8:1],6,4<7[8:1]*-8[8:1],,4,,1V75[4:1],2,13,,4h[4:1],,3h[4:1],,2q5[2:1],,6,,6,,6,6,{16}7,4,5,2,8,3,6,,1v4[8:1]*q5[8:1],,,,1b,,,,
{16}7-5[12:1],,3,,4-7[8:1],,2,,8-4[8:1],,,1,8,,3,,
{16}2-4[12:1],,6,,5-2[8:1],,7,,1-5[8:1],,,8,1,,7,,
{8}6<1[8:1],7,2>5[8:1],3,7-4[8:1],6,3-8[8:1],2,6pp5[8:3],,2,,3,,4,6,
{16}2-4[12:1],,7,,5-2[8:1],,6,,8-4[8:1],,,7,8,,6,,
{16}7-5[12:1],,2,,4-7[8:1],,3,,1-5[8:1],,,2,1,,3,,
{8}4<7[8:1],3,2,1,8>3[8:1],7,6,5,{16}7,4,5,2,8,3,6,,1v8[8:1]/5v4[8:1],,62,,1b/5b,,,,
{16}6h[8:1],,3,3,4h[8:1],,1,,{16}3h[8:1],,6,6,5h[8:1],,8,,6h[8:1],,4,5,2h[8:1],,1,,3h[8:1],,5,4,6,5,7,,{8}2>4[12:1]/6,2,1q5[8:1],1,8p4[8:1],8,7<5[12:1],7,2qq7[2:1],,3,,4,,5,,6V47[4:1]/4,,7-3[8:1],8,1w5[8:1],,1,,
{32}8b/3b,7,6,5,,,,,,,,,{32}1b/6b,2,3,4,,,,,,,,,3b/7b,,,,,,,,
{4}8b<2[2:1]/2b>8[2:1],,,{8},,{16}1,5,2,6,3,7,4,,(151)5>3[8:1]/6>3[8:1],,,,,,,,
2h[2:1]/6,,,,,,,,3<6[8:1]*q7[8:1],,,,3,,,,6pp1[4:3],,,,,,,,,,,,2,,3,,4h[4:1],,,,5<8[8:1],,6,,4pp6[6:1],,,,2>8[8:4],,,,3h[2:1],,,,
,,,,,,2,,6,,4,,
7h[2:1]/3,,,,,,,,6>3[8:1]*p2[8:1],,,,6,,,,3qq8[4:3],,,,,,,,,,,,7,,6,,{4}5>2[8:1],6h[4:1]/5,{4}4<7[8:1],3h[4:1]/4,{24}8,7,6,2,3,4,7,6,5,1,2,3,{8}4>1[8:1]/8<5[8:1],,48,,
(155)
{16}7h[8:1]/3,,5,6,3,4h[16:3],,,{16}1h[8:1],,5,2,6,3h[16:3],,,
{16}8h[8:1],,4,7s3[16:7],2z6[8:3],5,,,,,,,,,,,5>2[8:1],,,,65,,7,,4<7[8:1]/8,,,,3qq8[4:3]*pp4[2:1]/4,,,,,,,,,,,,,,7,,6,,5,,
(156)
{16}2h[8:1]/6,,4,3,6,5h[16:3],,,{16}8h[8:1],,4,7,3,6h[16:3],,,
{16}1h[8:1],,5,2z6[16:7],7s3[8:3],4,,,,,,,,,,,4<7[8:1],,,,1-5[8:1]/4,,,,8>3[8:1]/1,,,,68,,,,{24}7,6,5,1,2,3,8,7,6,2,3,4,{16}7-3[8:1],,2,6,{8}1w5[8:1],,
(158){4}1b,,,,
