&title=DIMENSION TRAVERSE!
&artist=Neko Hacker
&first=0
&lv_5=13+
&des_5=信与祈祷
&inote_5=(200){1},
{16},,,,,,,,,,,,E3,E4,E8,E7,
{16}1b,,,,,,3,4,3x,,,2x/5x,,,1xh[4:1]/6x<1[4:1],,
{16},,,,,,2x,3x,4xb,,,,E7,E6,E2,E3,
{16}8b,,,,,,6,5,6x,,,7x/4x,,,8xh[4:1]/3x>8b[4:1],,
{16},,,,,,7x,6x,5xb,,,,2xz6[2:3],7x,1x,8x,
{16},,,,,,,,,,,,,,,,
{16},,,,,,,,,,,,,,5,4,
{16}5,,6,,7,,3,,2,,1,,2bpp3[2:1]/8bqq7[2:1],,,,
{16},,,,,,,,,,,,2,8,2,8,
{16}2-5[8:1],,4,,5,,6-2[8:1],,,,5,,4,,3>7[4:1],,
{16},,7>3[4:1],,,,4h[4:1],,,,,,,,25,,
{16}1-5[8:1],,4,,5,,6-1[8:1],,,,3>6[4:1],,,,8,,
{16},,5,,5-8[8:1]*-2[8:1],,,,,,,,7,1,7,1,
{16}7-4[8:1],,5,,4,,3-7[8:1],,,,4,,5,,6<2[4:1],,
{16},,2<6[4:1],,,,5h[4:1],,,,,,,,74,,
{16}8-5[8:1],,3,,8,,1-4[8:1],,6,,1,,7,,7xh[4:1]/E4,E3,
{16}E2,E1,E8f,,,,5,,26,,4,,3bqq6[4:3]/7b>3-5[4:3],,,,
{16},,,,,,,,,,,,,,,,
{16}6h[1:1],,,,5,,5^3[4:1],,,,,,,,,,
{16}E3,,,,E4,,,,E5,,,,E6,,,,
{16}7h[1:1],,,,6,,6^4[4:1],,,,,,,,,,
{16}E5,,,,8,,8,,,,,,3,,,,
{16}3h[1:1],,,,4,,4^6[4:1],,,,,,,,,,
{16}E7,,,,E6,,,,E5,,,,E4,,,,
{16}2h[1:1],,,,3,,3^5[4:1],,,,,,,,,,
{16},,,,8,,8^3[4:1]*^5[4:1],,,,,,,,,,
{16}2b/6b,,,,,,,,,,,,,,12,,
{16},,57,,57,,,,24,,24,,,,18,,
{16}2bw6[8:1]/7,,,,,,,,1bw5[8:1]/3,,,,,,,,
{16}8bw4[8:1]/7,,,,,,,,2x/E5f,,,6x/E7f,,,8xhb[8:3]/E2f,,
{16},,,,{24},1x/7x,2x/6x,{16}3x/5x,,,,2,,2^7[8:1],,,,
{16}6,,6-1[8:1],,1,,6,,,,2,,38,,,,
{16}1v6[8:1]*v4[8:1],,,,1,,,,,,7,,7^2[8:1],,,,
{16}3,,3-8[8:1],,8,,3,,,,7,,1b/6b,,,,
{16}2h[4:1],,,,3h[4:1],,,,4h[4:1],,,,5h[4:1],,,,
{16}4h[4:1],,,,3h[4:1],,,,2h[4:1],,,,3h[4:1],,,,
{16}4h[4:3],,,,3,,,,3-5[8:1],,,,3,,,,
{16}4xh[4:3]/6x,,,,5,,,,5,,,,5,,5-3[8:1],,
{16},,6,,6h[4:1],,,,5h[4:1],,,,4h[4:1],,,,
{16}5h[4:1],,,,6h[4:1],,,,7h[4:1],,,,6h[4:1],,,,
{16}5h[4:3],,,,4,,,,4-6[8:1],,,,4,,,,
{16}5xh[2:1]/3x,,,,4,,,,4-1[8:1],,5-8b[8:1],,,,,,
{16}A2h[1:1]/D3h[1:1]/A3h[1:1],,,,,,,,,,,,,,,,
{16}A7h[1:1]/D7h[1:1]/A6h[1:1],,,,,,,,,,,,,,,,
{16}A4h[1:1]/E5h[1:1]/A5h[1:1],,,,,,,,,,,,,,,,
{16}A1/E1/A8,,,,,,,,26,,,,{32}A7f,B7,C,B3,{16}A3,,
{16}1b,,1,,35,,35,,8,,8,,64,,64,,
{16}1h[8:1],,2h[8:1],,3h[8:1],,4h[8:1],,5h[8:1],,6h[8:1],,7h[8:1],,8,,
{16}1b/2b,,37,,,,6b/5b,,37,,,,3b/2b,,48,,
{16},,7b/6b,,48,,,,3b/4b-8[8:1],,15,,,,,,
{16}2^5[8:1]/7,,,,26,,1^6[8:1],,,,15,,3,,3qq5[8:3],,
{16},,5,,5-7[8:1]*-3[8:1],,,,,,,,2/8-4[8:1],,,,
{16}7-2[8:1]/8,,,,3,,3-6[8:1],,,,1^4[8:1],,8,,7<1b[4:1],,
{16},,8,,8h[4:1],,,,,,,,3,6,3,6,
{16}7^4[8:1]/2,,,,73,,8^3[8:1],,,,84,,6,,6pp4[8:3],,
{16},,4,,4-2[8:1]*-6[8:1],,,,,,,,7/1-5[8:1],,,,
{16}1b/8b,,,,{24}4b^7[8:1],3x,2x,{16}1x,,4,,,,{24}1b<3[4:1],2x,3x,{16}4x,,
{16}1,,,,8,,,,1,7,1,7,26,,,,
{16}3bh[8:1]/4xh[8:1],,,7bh[8:1]/8xh[8:1],,,3bh[8:1]/4h[8:1],,,7bh[8:1]/8xh[8:1],,,1,6,1,6,
{16}2,4,3,5,4,6,5,7,{32}2x,3x,4x,5x,6x,7x,8x,1x,{16}2xb/6b,,,,
{16}8-3[8:1],,,,38,,4-8[8:1],,,,6V47-3b[8:3]/4,,7,,1,,
{16},,2,,2h[4:1],,,,5,,3,,4^1[8:1]/7^4[8:1],,,,
{16}4q8[8:1]/7,,,,2,,2,,{24}8x,7x,6x,{24}1,2,3,{16}4^1[8:1]/7^4[8:1],,,,
{16}4q8b[8:1]/7,,,,2,,2,,{24}8x,7x,6x,{24}1,2,3,{16}4/7<1[4:1],,,,
{16}4bh[4:1]/7b,,,,{32}D1,D8,D7,D6,D5,D4,D3,D2,{16}D1f,,,,2x-6[8:1]/7x,,,,
{16}7-1[8:1],,7,,3-5[8:1],,3,,8,,8,,1b/7b,,,,
{16}7-4[8:1],,2,,8,,3-7[8:1],,,,5,,4,,6>2[4:1],,
{16},,2<6[4:1],,,,5xh[4:1],,,,,,,,74,,
{16}8-4[8:1],,5,,1,,3-8[8:1],,,,6<3[4:1],,,,1,,
{16},,4,,4w8[8:1],,,,,,,,2,8,2,8,
{16}2-5[8:1],,7,,1,,6-2[8:1],,,,4,,5,,3<7[4:1],,
{16},,7>3[4:1],,,,4xh[4:1],,,,,,,,25,,
{16}1-4[8:1],,3,,1,,8-5[8:1],,6,,8,,2,,2xh[4:1]/E6,E7,
{16}E8,E1,E2f,,,,4,,73,,5,,6bpp4[8:3]/2bqq5[8:3],,,,
{16},,,,,,,,,,,,,,,,
