&title=迷星叫
&artist=MYGO!!!!!
&first=-0.04
&des=Lemon-light
&lv_5=13+
&des_5=Lemon-light
&inote_5=
(190){4},{8},,,,,,7/2,
1-5[8:1],8,1,,2/7,8-4[8:1],1,
{4}8,{8}6/3,4-8[8:1],5,4,,2/7,
6/3,5-1[8:1],4,5,,2,8,1,
{4}7h[4:3],2,2,2,
{32}1bx/8bx,2bx/7bx,3bx/6bx,5x-7-1-3-5[32:21]/4x-6-8-2-4[32:21],{1},{16},,{4}E6,
E4,B7,
{1}Cfh[1:1],
{4}6h[8:1],6h[8:1],{16}4,6,4,6,3,5,3,5,
{8}2pp1[2:1],,,Cf,,,{4}6,
{3}6qq7[2:1],Cf,{96},,,,,,,,{32}1,2,3,4,5,6,7,8,
{1}1bw5[32:21],
{4}2v5[8:1]/6v1[8:1],2/6,{16}8/4,7/3,{8}2h[8:1]/6h[8:1],,,4b/5bv7[16:11],
,,3,,,{4}2,
{8}1bv3b[16:11],,,6,,,{4}5,
{8}4v6[16:11],,,2,,,{4}1,
{8}8v2b[16:11],,,6,,,{4}5,
{8}4b/8qq4[1:1],,,1,,,3,3,
4<1[1:1],,,3,,,2,2,
1-5[2:1],,,2,,3,,4,
{4}5/4h[2:1],{8},,,,7,7,
7b,8/1,2>4[8:1],1/8,{4}2,{8}5/6<8[8:1],7,
{4}5/6,{8}3,3h[4:3],{4}5-8[8:1],5,
{8},8,1/7<5[8:1],8,7/1,2,4/3>1[8:1],2,
{4}3/4,{8}6,6h[4:3],{4}1-5[8:1],1,
{8},2-7[8:1],,2,{4}6-3[8:1],{8}6,1,
8-4[8:1],2-5[8:1],8,2,,6,7,8h[8:3],
,,3,3,,4/5,,5/2,
{16}3,4,{8}3,2/5,3h[8:1],5h[8:1],1h[8:1],{4}7b,
{8}1,2/7,,1,,1-5[8:1],,1/6h[8:3],
,,,1x/6,6/2,6/3,{4}6/4,
{8}5,6/3,,5,,5-8[8:1],,5,
{4}1-3-7[4:1],{8}1,6h[4:1],{16},,8,1,2,3,{8}4,
6,7/4,,4,,4/5-8[8:1],,5/4h[8:3],
,6,{4}6,{6}2bx/Cf,8b/Cf,3b/Cf,
{2}6b/Cf,{4}8-5[8:1],3,
1-4[8:1],6,5-8[8:1],2,
4-1[8:1],7,{8}4/6,4/6,3/7,3/7,
2b/8h[4:1],2,2b,7b/1h[4:1],7,7,{4}8b/1bw5b[8:1],
1b,,,1-5[8:1]/8-6[8:1],
1-3[8:1]/8-4[8:1],1/8,{8}7,7,1-3[8:1],1,
{4}1/8-4[8:1],8/7,{8}2,2,8-6[8:1],8,
{4}8/1-5[8:1],1/2,{8}4,8,,8/1,
,8/1,{4}2h[4:1]/7h[4:1],,5>2[8:1]/8<5[8:1],
8-4[8:1],8w4[8:1],,1>4[8:1]*<6[8:1],
1-5[8:1],1w5[8:1],,2h[4:1],
{8}5,1,4,5/3-7[8:1],,8-4[8:1],,2-6[8:1],
,2,{4}5h[4:1],{8}3,{16}8,2,8,2,8,2,
{4}8b,{8}2,2,2,6,3,5,
{4}4-1[8:1],{8}4,8-5[8:1],,8/1,,2,
{4}2-5[8:1],2-8[8:1]/7-3[8:1],7/2,6h[4:1]/1-5[8:1],
1<4[2:1],{8}4,4,,2,{4}2h[4:1],
{8},,6/3<5[32:3],2,{4}3/8-5[8:1],8,
{8}2>4[32:3],1,2/5-8[8:1],6,{4}5/1w5[8:1],1,
{8}1b/7b,1b/7b-3[8:1],,7b/1b-5[8:1],,1b/8bw4[8:1],{64},,,,,,,,8b<1[8:7],Cf,{1},{4},{16},{32},{4}7/4-6[32:3],
1/4-1[8:1],4/5,
{8}2/7,{16}1,8,{8}1,7/2-6[8:1],,2,{4}8h[4:3],
{8}3,3,,3,{4}3p6[4:1],6<4[8:7],
{8}5,5,,5,{4}5,5,
{8}6,6,,6,{4}6q3[4:1],3>5[8:7],
{2}4h[4:1],4h[4:1],
{4}1/2-5[8:1],{8}2,7,{4}6-1[8:1],6,
5/4-1[8:1],{8}4,8h[4:1],,1,{4}1-4[8:1],
{8}1/5h[8:3],,,1h[4:1],,7h[4:1],,3h[4:1],
,6,{4}5h[4:1],{8}4,4,{4}4b,
{8},6h[8:5],{4}4,{8},4,3,2,
{4}5/1V35[4:3],{8}6,6,,,{4}7,
{8},8h[8:5],,,2,2,3,4,
{4}5V31[4:3],{8}7,7,,,{4}6,
{8},4,3,2h[4:1],,6,5,4,
{4}3v8[8:3],{8}5,5,,,4,5,
{4}6h[8:3],{8}3,3h[4:1],,8,8,4/7,
{16}5,6,{8}5,7/4,3h[8:1],1h[8:1],5h[8:1],{4}7b,
{8},6/5,4,3,2-5[8:1],5-1[8:1],{4}2,
8h[4:1],{8}2,2h[8:3]/8-4[8:1],,8,,,4/2,
2/4,5,6,7-4[8:1],4-8[8:1],{4}7,
1h[4:1],{8}7,7h[8:3]/1-5[8:1],,1,,,5/6,
5/6-1[8:1],7,6/2-5[8:1],3,2/8,,8,
2-6[8:1],6-3[8:1],2,8-5[8:1],,8,4,3-8[8:1],
,3,7,6-3[8:1],,6,1,2/5,
{16}3,4,{8}3,5/2,6h[8:1],4h[8:1],8h[8:1],{4}2,
{2}2/8b<3[1:1],2,
2,{8}2,4/5,{4}7,
{2}7/1b>6[1:1],7,
7,{8}7,5/4,{4}2,
{2}2/8b<3[1:1],2,
2,{6}2b/Cf,8b/Cf,3b/Cf,
{2}6b/Cf,{8}2-6[8:1],2,5-8[8:1],5,
1-4[8:1],1,7-3[8:1],7,5-2[8:1],5,1w5[8:1],1,
1,,,3/6,3/6,7/2,1/8,1/8,
{24}1b,2,3,4,5,6,7,8,1,6b/2,5,4,3,2,1,8,7,6,{4}5/1bw5[8:1],
{32}1b,Cf,{4},,{16},,,{8}8/1-6[8:1],2,
{4}1/6-3[8:1],8-4[8:1],8,{8}1-5[8:1],2,
{4}1/5-2[8:1],7-3[8:1],7,{8}1v4[8:1],2,
{4}1/7v2[8:1],7,{8}3,5-1[8:1],,5,
{16},,8,7,6,5,{8}3h[8:1]/4h[8:1],,,7/1-5[8:1],2,
1/6-3[8:1],7,{4}6/8w4[8:1],8,{8}2/8-4[8:1],7,
8/3-6[8:1],2,{4}3/1w5[8:1],1,7h[4:1],
{8}1,3/4,8,6h[4:1]/5-2[8:1],,5,,8,
{4}1h[4:1]/8-4[8:1],8,{8}6/3,{16}4,5,4,5,4,5,
{4}4b,1>4[8:1],{8}1,7,{4}5/6,
{8}5/6-1[8:1],7,6,2-5[8:1],,2/1,,3,
{4}3/8-4[8:1],{8}8/4,3,{4}2-4[8:1]/5-1[8:1],5/2-7[8:1],
2/6-3[8:1],{8}6/4,4-1-6[4:1],,4,{4}7-3[8:1],
,4/2<7[16:5],4,5,
6/8>3[8:3],6,7,8/2,
{8}8b/2b,{16}4,6,{8}4,2b/7b-3[8:1],,7b/2b,,2-5[8:1],
8-4[8:1],2,{48}8b<2[2:1],Cf,{4},,,{16},,,{48},{4}5-1[8:1],
5>2[8:1],5,
1/8,{8}5/6,5/6-1[8:1],,6,2bh[2:1],4,
4,4,4,3bxh[4:1],5,5,4bx-8[8:1],5,
4,7bx-3[8:1],1,7,2bx-6[8:1],4,{4}2,
{8}7bxh[4:1],1,1,8bxh[4:1],2,2,3bx-7[8:1],5,
3,6bx-2[8:1],1,6,{16}1bx-5[8:1],3,,,{4}1,
{8}7bxh[4:1],5,5,6bxh[4:1],4,4,5bx-1[8:1],3,
5,2bx-6[8:1],8,2,8bx-4[8:1],5,{4}8,
{8}2bxh[4:1],8,8,1bxh[4:1],7,7,8bx-4[8:1],7,
8,6bx-2[8:1],3,6,4bx-8[8:1],1,{4}4,
{8}7-3[8:1],,,4-1[8:1],,4,{4}8,
7/2h[2:1],5,7-3[8:1],7,
1-5[8:1],{8}1/8,7,{4}6-3[8:1],6/2,
8-5[8:1]*-3[8:1],8,{8}2/6,2/6,{4}1b/5b,
{8}1/5,5/1>4[12:1],{64},,,,,,,,1/5b,{192}A2f,6,,,,{48}7,8,,,,,,,,,{8}8/4x,{4}2h[8:1]/6h[8:1],
{8}1/5,1/5<8[32:3],{64},,,,,,,,5/1b,{192}A6f,2,,,,{48}3,4,,,,,,,,,{8}8x/4,{4}6h[8:1]/2h[8:1],
{8}1/8,1w5[8:1]/8w4[8:1],{64},,,,,,,,1b/8b,B7f/B2f,Cf,E5f,,,,,,,,,,,,,{8}2/7,{4}2/7,
{16}4,6,4,6,3,6,2,6,1,6,{8}1bh[4:1],,,6/8,
2/6,3/6,1/6,{16}2,6,4,8,1,5,3,7,
{1}1bz5[16:73],
B8,
B3,
B6,
{4},B4,,,,4/5,
4/5,5/4,
5/6,5/4,3/4,4/5,
{8}3/6,{16}4,5,{8}4,3/6,2/7,1/8,,1-3[8:1],
8-4[8:1],1-5[8:1],8-6[8:1],1-3[8:1],8,1,{16}5,4,5,4,
{4}5b,{8}1-5[8:1],1,1>4[8:1],4,1,6,
3,5,2,8-5[8:1],,3/8,,4,
{4}4-1[8:1],{8}4/8-4[8:1],8,8<5[8:1],3,{4}8,
3/4-7[8:1],{8}4,8-3[8:1],,8,{4}6h[4:1],
,1>4[8:1],1/6<1[8:1],3<6[8:1],
8-5[8:1],8-3[8:1],8-4[8:1],8,
{8}1>3[32:3],3<5[32:3],5<7[32:3],8b,,1bw5[8:1],{64},,,,,,,,1b>7[8:5],Cf,{1},{4},{16},{32},{4}7/4>2[8:1],
4-7[8:1],4/1x,
{8}8/3,{16}2,1,{8}2,3/8-4[8:1],,8,{4}1h[4:3],
{8}6,6,,6,{4}6q3[4:1],3>5[8:7],
{8}4x,4h[8:1],,4x,{4}4h[8:1],4x,
{8}3,3,,3,{4}3p6[4:1],6<4[8:7],
{2}5h[4:1],5h[4:1],
{4}8/7-4[8:1],{8}7,2,{4}3-8[8:1],3,
5/6-1[8:1],{8}5,2,{4}2h[4:1],8-5[8:1],
{8}8,4w8[8:1],,4,,,,,{4}7-4[8:1]/3-8[8:1],
7/3,{32}1,2,3,4,5,6,7,8,{4}5b/1w5[8:1],
{1}1-3>2-8v7-5[4:19],
E
