&title=Prohibited Props[DX]
&artist=BEMANI Sound Team "ZAQUVA"
&first=0.4
&des_1=神曲我懂得欣赏
&des_2=神曲我懂得欣赏
&des_3=神曲我懂得欣赏
&des_4=神曲我懂得欣赏
&des_5=神曲我懂得欣赏 aka.xxlbilvu
&lv_5=14
&des_6=神曲我懂得欣赏
&des_7=神曲我懂得欣赏
&des=神曲我懂得欣赏
&wholebpm=168
&shortid=014
&genre=其他游戏
&cabinet=DX
&version=我不知道
&chartconverter=Neskol
&inote_5=(164)
{1},
{1}8b/2bv5>1[4:3],
{16}7h[16:3],,,6h[16:3],,,5,,5-8[8:1],,,,3,,,,
{1}4/7v4<8[4:3],
{16}2h[16:3],,,3h[16:3],,,4,,4-1[8:1],,,,6,,,,
{2}7qq3[2:1],1xh[4:1],
{2}2pp6[2:1],8xh[4:1],
{8}8h[4:1],,6,,7/5,4,6/3h[4:1],,
{16}2h[16:3],,,1h[16:3],,,8,,8-5[8:1],,,,,,,,
{16}2x/4x,,,5,2,,6,,2,,7,7,2,,8,,
2/7,,,6,2,,5,,2,,6,6,2,,7,,
7x/4x,,,3,7,,2,,7,,1,1,7,,2,,
7/3,,,4,7,,5,,7,,4,4,7,,3,,
{16}6x,5,6,5,7,4,7,4,5,3,5,3,6,2,6h[8:1],,
3x,4,3,4,2,5,2,5,4,6,4,6,3,7,3h[8:1],,
{32}8x,7x,6x,,4,,4,,7x,6x,5x,,2,,,,
2x,3x,4x,,6,,6,,1x,2x,3x,,7,,,,
7x,6x,5x,,1,,7,,2x,3x,4x,,8,,2,,
7x,6,5,4,3,2,1,8,7x,6,5,4,3,2,1,8,
{4}3bqq8[8:5]/7b,,5-7[8:1],5b,
{16}7x/8x,,1,,5/2h[4:1],,,,8,1,2,3,4,5,6xh[4:1]/2x,,
,,2,,3xh[4:1]/7x,,,,1,2,3,4,5,6,7,,
7x/3x,,7,,7h[4:1]/2,,,,1,8,7,6,5,4,3hx[4:1]/7x,,
,,7,,6xh[4:1]/2x,,,,8,7,6,5,4,3,2,,
2x/7x,,3/6,,4/5h[4:1],,,,3,4,5,6,7,8,1xh[4:1]/6x,,
,,6,,6xh[4:1]/2x,,,,4,5,6,7,8,1,2,,
2x/7x,,3/6,,5/4h[4:1],,,,6,5,4,3,2,1,8xh[4:1]/3x,,
,,3,,3xh[4:1]/7x,,,,1-5[8:1],8,7,6,5x/1b,,,,
6x/4,,3/7,,6h[4:1]/4,,,,5,,5,6,,6,4,,
3x/5,,2/6,,3h[4:1]/5,,,,4,,4,3,,3,5,,
4/6x,,3/7,,2/8h[4:1],,,,1,,1,7,,7,3,,
3x/5,,2/6,,1h[4:1]/7,,,,8,,8,2,,2,5,4,
{8}7x,7,7x/4,7,7x/1,7,7x/3,7,
7x/2x,2,2x/4,2,2x/8,2,2x/6,2,
{16}6,4,6,4,5,3,5,3,6,2,7,1,8xqq4[4:3],8x,8x,8x,
{4}8bx,,3-1[8:1],3b,
{32}1bx/6,2,3,4,
{16},,7,5,,5,6xh[8:1],,4,5,3,,3,,
2/8,,8,,8,1,,1,7xh[8:1],,8,6,1,,2,,
{32}8b/3,7,6,5,
{16},,2,4,,4,3xh[8:1],,5,4,7,,7,,
2/8,,2,,2,8,,8,1xh[8:1],,7,2,6,,7,,
{32}8/2b,3,4,5,
{16},,8,5,,5,7xh[8:1],,8,6,1,,1,,
2/5,,5,,5,3,,3,8xh[8:1],,1,7,2,,3,,
{32}7b/2,6,5,4,
{16},,3,4,,4,2xh[8:1],,8,1,7,,2,,
{8}D8/E8/A8,E2/D2/A2,E4/D4/A4,E6/D6/A6,,C1h[4:1],,,
{16}1bh[16:1]/2bh[16:1],,,1/2,,3/8,,4,7,5,6h[8:1],,5,,7/4,,
8,2,1,3h[8:1],,4,,2,5,1,6h[8:1],,8h[64:1],7h[64:1],8h[64:1],7h[64:1],
1bh[16:1]/6bh[16:1],,,1/6,,8/7,,8,7,2,5h[8:1],,2,,4/5,,
2,5,3,4,2,,7,4,6,5,7,,2h[64:1],1h[64:1],2h[64:1],1h[64:1],
8bh[16:1]/3bh[16:1],,,8/3,,7/4,,5,6,4,7h[8:1],,8,,1/6,,
2,5,3,4h[8:1],,3,,2,5,1,6h[8:1],,8h[64:1],7h[64:1],1h[64:1],6h[64:1],
7bh[16:1]/8bh[16:1],,,7/8,,1/6,,2,7,4,5h[8:1],,4,,3/6,,
2,7,1,8,2,7,1,8,
{36}E2,B2,,B3,,,E4,,,E8,B7,,B6,,,E6,,,
{8}2bv4-1[2:3],,,,8,7,6,5h[8:1],
,5,6,,6,7,8,,
7v5-8[1:1],,,,1,2,3,4h[8:1],
,4,3,,8x-4[8:1]/,,8b/2x,,
{16}3x,,3,4,,4,3h[8:1],,5,,6,,7/4,,4,,
6x,,6,5,,5,6h[8:1],,4,,3,,2/5,,5,,
2x,4,3,4,2h[8:1],,7x,5,6,5,7h[8:1],,1x,8,1,8,
2,2,4,4,6,6,8,8,2,7,1,8,
{32}2x,3x,4x,5x,6x,7x,8x,1x,
{1}2bx/5x-8[4:3],
{8}1x,,2x,,3x^8[8:1]/4x,5x,3bx/4x,,
{16}5x,4,6h[8:1],,1,7,2,8h[8:1],,3,7h[8:1],,4,6,3,5,
1x,8,2h[8:1],,7,3,6,4h[8:1],,5,3h[8:1],,1,2,8,3,
6x,5,7h[8:1],,8,6,4,5h[8:1],,2,6h[8:1],,4,5,1,7,
2x,8,3h[8:1],,4,2,5,1h[8:1],,8,2h[8:1],,7x,1,6x,4,
5x,3,7h[8:1],,1,8,3,5h[8:1],,4,7h[8:1],,2,8,5,6,
1x,7,4h[8:1],,5,3,8,1h[8:1],,7,3h[8:1],,8,2,5,4,
7bx,5,6,2x,4,3,7bx,5,6,2x,4,3,8x,1,8x,1,
6bx,4,5,3x,5,4,6bx,3,{24}7x,8,1,2,3,4,5bx/1b,,1,,6,,
{12}7-5[8:1]/8x,8x,8x,8x/7x,,,
{16}7-4[8:1]/2,,,1,7x,,8,,
{4}7-5[8:1]/1-4[8:1],7x/1x,7-4[8:1]/3-1[8:1],7x/3x,
{12}2-4[8:1]/1x,1x,1x,1x/2x,,,
{16}7/2-5[8:1],,,8,2x,,1,,
{4}2-4[8:1]/8-5[8:1],2x/8x,2b-5[8:1]/6b-8[8:1],2bx/6bx,
{16}5x,6,4h[8:1],,7,3,5,2h[8:1],,8,3h[8:1],,7,4,6,2,
8x,1,7h[8:1],,4,6,2,5h[8:1],,1,6h[8:1],,3,7,4,5,
2bx,4,3,7x,5,6,2bx,4,3,7x,5,6,1x,8x,1x,8x,
{32}1b,2,3,4hx[32:3],,,7b,6,5,4hx[32:3],,,2b,3,4,5hx[32:3],,,8b,7,6,5hx[32:3],,,1b,2,3,4,5,6,7,8,
{1}1b/C1f,,
E
