&title=XHRONOXAPSULΞ
&artist=Silentroom
&first=0.1
&lv_5=15+
&des_5=Crystallia vs. Lunafoto「Reverse」
&inote_5=
(277){4},,,,,,,,{1}8<8[4:11],
,,4<4[4:7],
{4},,,,,8z4b[4:1],
,,1b/2b,
8bh[4:1]/3bh[4:1],,6b/5b,
4bh[4:1]/8bh[8:1],{16}8,7,6,5,{4}4b/1b-5[8:1],8-4[8:1],
,2-5[8:1],7-4[8:1],1,
3-6[8:1],8z4[4:1],1,2-6[4:1],
5,4,{16}8,1,2,3,4,5,6,7,
8,1,2,3,{4}4/8h[4:3],,,{1}1b,
{2},C,
{4},,,,7-4[8:1],
{8}7,2-5[8:1],,2,{4}4-8[8:1],
{8}4,1-5[8:1],,1,{4}7-3[8:1],{8}7,5h[4:1],
,,{4}6b/4b,{2}8b-4[8:1]/2b-6[8:1],
{4}3,3/5,3/5,3/4,
3/6h[8:1],3/7h[8:1],3/5h[8:3],3,
3/6h[4:1],{8}3,7h[4:1],{4}3,3/6h[4:1],
{8}1,5,2,2,4,3,8,5,
6,3,5,4,5,2,4,2,
4,3,{4}5h[8:1],6h[8:1],7h[8:1],
8b-6v4[1:1],2,2,2,
2,2,{8}2b-5[8:1],,,6b-4[8:1],
,,{4}1b-5[8:1],{8},7b-4[8:1],,,{4}1>5[4:5],
7,7,7,
7,7,{8}7b-4[8:1],,,3b,
,,{4}8b/2b,{2}8b/2b,
{4}5h[4:1],{8}4,6,3,7,2,2,
8,8,{4}3h[8:1],{12}1x,8,7,1x,2,3,
8,7,6,2,3,4,{2}1,
{1}6h[2:3]/5>7-1-3-5-7[4:19],
,,C,
,{4},{16}8,
7,6,5,1,2,3,4,{4}8-4[8:1],
2b,2,2/5,6/3,
{8}6,4,{4}6,5/3h[4:1],{8}4,3,
{4}4,5/3,{8}4,6,{16}5,7,{8}5,
{4}8V64[8:3],2,1,1<5[8:3],
4,3,2-5-3[8:3],8,
7,6,{2}6/5,
{4}4h[8:1]/3h[8:1],3h[8:1]/4q8[4:1],,2-6-3-5[8:3],
,,7h[8:1],7-5-1[8:3],
,2,,8,
5h[8:1]/6h[8:1],6h[8:1]/5p1[4:1],,7-4-6-3[8:3],
,,2h[8:1],2V48[8:3],
,7,{16},,,,5,4,5,4,
{4}5b,{8}7/4,6,{4}5/3,{16}3,5,3,5,
2,6,2,6,1,7,1,7,{4}8b,{16}6,5,6,5,
{4}6,{16}7,5,7,5,6,4,6,4,5,3,5,3,
{8}4,4,2/4,2,2/6,6,3/6,3,
3,5,{4}5/4,{32}5,6,7,8,1,2,3,4,5,6,7,8,1,2,3,4,
5-1b[8:1],6,7,8,1,2,3,4,{4},,,8b/2b,
{16}5,7,4,6,{4}5h[8:3],{16}4,3,2,1,
4,3,2,1,8,7,6,5,{4}3/4h[4:1],{8}3,4,
{4}3h[8:3],{16}4,5,6,7,8,1,2,3,4/8,7,6,5,
{4}4/8h[4:1],{8}1,8,{4}1,{16}A7,E7,E6,A5,
B8/A1,C/E2,B4/E3,A4/A3,A7/D8/A8,E7/B8/B7,B6/A6,E6/D6/B5,{4}2/A5/D5/E5,{8}3,4,
{4}3,{8}5,5,4,4,{4}6,
5b/6<3[8:3],5,5,4-1[8:1],
6,7,{8}1h[4:1]/8h[4:1],,,7h[4:1]/6h[4:1],
,,{4}5h[4:1]/4h[4:1],{8},3h[4:1]/2h[4:1],{16},,,,8/1,
7,6,5,4/8,1,2,3,{4}4/6,1,
1/7,1/8,{8}7b/5b,6,6,4b/2b,
3,3,{4}8h[4:3],{24},,,,,,,,,,,,1,
2,3,1,2,3,4,1,2,3,4,5,1,2,3,4,5,6,1,2,3,4,5,6,
{4}7b,1,{24}8,7,6,8,7,6,5,8,7,6,5,4,
8,7,6,5,4,3,8,7,6,5,4,3,{4}2b,{16}4,6,4,6,
4,6,3,7,3,7,2,8,2,8,2,8,{24}2,3,4,5,6,7,
3,4,5,6,7,8,4,5,6,7,8,1,{16}2,8,2,8,3,7,3,7,
4,6,4,6,4,7,3,7,3,8,2,8,2,8,2,8,
{4}1,{32}5x,4,6x,7,5x,4,6x,7,4x,3,7x,8,4x,3,7x,8,2,3,4,5,6,7,8,1,
{2}2b-6[8:1],{32}4x,5,3x,2,4x,5,3x,2,5x,6,2x,1,5x,6,2x,1,
7,6,5,4,3,2,1,8,{4}7b-3[8:1],,,{1}1b-7-3-5-1[2:11],
,,8<1b[4:9],
,,Ch[2:9],
{2},E1h[1:3]/E5h[1:3],
,,{1}D1h[2:3]/D5h[2:3],
{4},,,,,8-6[8:1]/4-2[8:1],
,,7-4[8:1],
3-5[8:1],8-4[8:1],1-5[8:1],
6-3[8:1],2-5[8:1],7-5[8:1],8-4[8:1],
1-3[8:1],2x-4-8-5[8:3],,,6-4[8:1],
3-5[8:1],7-4[8:1],2-5[8:1],
8-4[8:1],1-5[8:1],7-2[8:1],3-6[8:1],
8-5[8:1],4xz8[8:3],,,7,
5/7h[4:1],,6/5,
5/4,4/3,2,4/2h[4:1],
,4/3,5/4,6/5,
7b-5[8:1],{8}7,1b-3[8:1],,1,{4}4b-8[8:1],
{8}4,2b-6[8:1],,2,7b,8,1,2,
3,4,5b,6,7,8,1,2,
{1}8h[4:5],
{8},,2,3,{2}4h[2:3],
,,{1}C,
,,E8/E4/A6/A2/B5/B1/A8h[4:1]/E7h[4:1]/Ch[4:1]/A5h[4:1]/E3h[4:1]/A4h[4:1]/A1h[4:1],
{2},D6/D2/B8/B4/D1h[4:1]/B6h[4:1]/B2h[4:1]/D5h[4:1],
{4},A1h[4:1]/B1h[4:1]/Ch[4:1]/B5h[4:1]/A5h[4:1],{32},B3,A7,A3,D1,A4,E6,D2,B6,A2,A6,A4,B8,D5,A1,E7,
{4}E4,5b,6b/4b,7b/3b,
8b/2b,1b,{32}8b/2b,7,6,5,{8}4,{32},,,,2b/8b,3,4,5,
{4}6,{32}8,7,6,5,4,3,2,1,8,7,6,5,4,3,2,1,{4}8b,
{8}2-5[8:1],2,7-4[8:1],7,1-5[8:1],1,6-3[8:1],6,
2-7[8:1],2,{4}5b,8-6[8:1],{8}8,4-2[8:1],
,4,{16}8,7,6,5,8,7,6,5,{4}4b,
2-4[8:1],{8}2,6-8[8:1],,6,{16}1,2,3,4,
1,2,3,4,{4}5/1b,7-5[8:1],{8}7,3-1[8:1],
,3,8z4b[4:1],8,,,,,1/2,
{16}2,1,{8}2,8/3,7/4,6/5,7/8,{16}7,8,
{8}7,6/1,5/2,4/3,1/2,{16}2,1,{8}2,8/3,
7/4,6/5,7b,7b-3[8:1],{16},,,,,,,,3,
4,3,4,2,5,2,5,1h,6h,1h,6h,4,5,4,5,
3,6,3,6,2h,7h,2h,7h,1,8,1,8,2,1,2,1,
3h,7h,3h,7h,{8}4z8b[4:1],4,{32},,,,,,,,,,,,,,,,6x,
5,4,6,5,4,6,5,4,6x,5,4,6,5,{16}4,{4}6b,{8}1,1,
3,3,5,5,{32}8x,1,2,8,1,2,8,1,2,8x,1,2,8,1,{16}2,
{4}8b,{8}6,6,4,4,2,2,
{16}7b,8,7,8,7,8,7,8,7,8,7,8,7,8,7,8,
7,8,7,8,7,8,7,8,6,1,6,1,6,1,6,1,
6,1,6,{32}1,B1,Cf,B5,{16}A5,,,,,,,,,,,{1}1>8b[4:9],
,,{16}2,
1,3,8,4,7,5,6,1,8,2,7,3,6,4,5,
8,7,1,6,2,5,3,4,3,4,{32}3,2,1,8,7,6,5,4,3/7,2/6,1/5,8/4,
7,6,5,4,3/7,6,5,4,{8}3/8b-4b[8:1],8b,
E
&lv_6=1
&des_6=
&inote_6=
(277)
E
