&title=L.U.V (石濱 翔 Remix)
&artist=姫崎莉波 / 石濱 翔
&first=0.68
&des=Aza with respects to TRG
&lv_6=14+
&inote_6=(122)
{4},E5h[2:1],,{24}C,,,,,1,{4}2x/8x-2-6-4^5-3qq1[1:1],,,,,{24},,,,,2,3hx[2:1]/8x,,,,,,6,5hx[8:1],,,,6,5hx[8:1],,,3q5[4:1],4x/6hx[4:1],,{4},{24},,,,8,7x,6x/4x,,,2,3hx[4:1]/5x,6x,{4}7pp4[8:3],{24},,,,,2,{4}3xqq2[4:1],,{24}5hbx[8:1],,,,,3,{4}4xqq2[4:1]/6x,{24},,,,5,6>3[8:1],7hx[8:1],,,,,6,,,,8,7hx[4:1],,,,8,1xV73[4:1],,,{4},{24},,,,,7,6<1[8:1],,2,3x,4x,,{4}2>5[8:1],{24},,7,8x-4[8:1],,,,,,,,2,3x>4[8:3],,,,,,,,7,6hx[4:1],,,,,,,,3,2x/8xv2^3-5b[1:1]*^7-5[1:1],1bx,,{8},
{1},
{24},,,,,8>3[8:1],7hx[2:1],,,,,8,{4},{24},,,,,4,3x<6[8:1],,5h[4:1],{8},,,7h[4:1]/8,{24}1,,2,3x-5[12:1],,6<1[8:1],5hx[8:1],,,,,,{8},2,{24}3,8/4h[4:1],,{4}6z2z6[2:1],{24},,,,,1,,,1,,,,,,2,5,,5,3,,3,4,,4,5,,5,6,,6,4,,4>1[8:1],7,,6,5,,4,7,,8,{4}7hx[12:7],{24},,,,,5,,,5,,,6,4,,,3/5,,2>5[8:1],6h[8:1],,,,,2,,,8,7hx[8:1],,8,1x,,,{8}2/8,3/4,4/5,{24}5h[8:1]/6,,,,,7,4x/8x,,7,{8}2hx[8:3]/6x,,{48},,,,,E7,{24}B6,,3,4>1[8:1],,,5/7h[8:1],,,,,6,5x,,6,5x,,6,5x,,3,4x/8x,,3,4x/8x,,3,4x/8x,,6,
{24}5x<7[8:1]/2bx,,3,4,,2,5,,3,4x,,4,8-4[8:1],,7,5,,4,8,,3x,,,5,2>4[8:1],,1,5,,6,2,,7x,8x,,8,5-1[8:1],,4,7,,7,5,,6x,,,5,2x/4x,,,2x/4x,,3,4,,4,5,,5,6qq7[4:1],,,7,,1,6,,1,2x,,2,3x,,3,4/8,,7,5-3[12:1],,4,6,,6,5-7[12:1],,7-5[12:1],8x,,,{4},
{8}3/4,{24}2/8,,7,5x/6x,,7,2x/8x,,,3>8[8:1]/4,,2,5,,6,3,,7,6x,,6,5<8[8:1],,3,4,2,3,,,1,2x,,,{8}3/4,4/5,5/6-1[8:1],{24}7/8,,1,{8}6,2,3h[8:1],5h[8:1],7h[8:1],{24},,8,1-5[8:1],,2,4,,5,1,,,{8}7h[8:1],4h[8:1],{24}2h[8:1],,1,8-4[8:1],,7,5,,4,8,,,3,,,
{4}2q3[8:5]/6b,{24},,,,,5,{4}4-8[8:1],,7p6[8:5],{24},,,,,4,{4}5-1[8:1],,4/2h[8:3],{24},,,,,,D7,D8,D1,D2,D3,D4,D5,D6,D7,D8,D1,3,4x,,,,,7,{8}6-1[8:1]/2h[8:1],{24},,3,4x,,,,,8,{4}7-4[8:1]/2h[8:1]
,
{8}1>4[8:1]/7,A4h[8:1],1v4[8:1],A4h[8:1],1,{24}A4h[8:1],,3,2-5[8:1],,,6x,,,{8}8<5[8:1]/2,A5h[8:1],8v5[8:1],A5h[8:1],8,{24}A5h[8:1],,6,7-4[8:1],,,3x,,,{8}1>4[8:1]/7,A4h[8:1],1v4[8:1],A4h[8:1],1,{24}A4h[8:1],,3,2-5[8:1],,,6x,,,{8}6h[8:1]/2<7[8:1],A5h[8:1],2-5[8:1],A7h[8:1],2<7[8:1],A5h[8:1],2,{24}A7h[8:1],,4-6[8:1],3x,,,,,4,2-6[8:1],,,,7,8,2,,,,,8,7hx[9:1],,,,,5-3[8:1],6x,,,,,5,7-3[8:1],,,,2,1,7,,,,,1,2bx,,8,2,,7,2,,6,2,,5,2,,4,2,,3,2>5[8:1],,1,8,,8,2,,7,6h[4:1],,,{24}7x,8x,1x,2x,3x,4x,2,1x,8x,7x,6x,5x,7,8x,1x,2x,3x,4x,2,1x,8x,7x,6x,5x,
{8}1bq5[8:1],{24},,7,1V75[8:1],,,A5h[8:1],,,1,,,A5h[8:1],,4,3-8[8:1],,7x,,,6,3/5x<8[8:1],,,A8h[8:1],,,5V38[8:1],,,A8h[8:1],,,5,,,A8h[8:1],,7,6-1[8:1],,1x,,,3,6/4x>1[8:1],,,A1h[8:1],,,4V61[8:1],,,A1h[8:1],,,4,,,A1h[8:1],,2,3-8[8:1],,8x,,,6,3-7[8:1],,,A8h[8:1],,,3-8[8:1],,,A7h[8:1],,,3-7[8:1],,,A8h[8:1],,,3,,,A7h[8:1],,1-5[8:1],2x,,8x,,,1,6-1[8:1],,,,4,3x,6,,,,,2,8,,3,7,4,8-4[8:1],7x/3x,,1x,,,8,3-8[8:1],,,,5,6x,3,,,,,7,1,,7,2,,7,3,,7,4,,7,5,,7,6,,7,1>4b[8:1],,8,6,,6,1,,7,8h[4:1],,,6,5x,4x,3x,2x,1x,3,4x,5x,6x,7x,8x,6,5x,4x,3x,2x,1x,3V15[4:1],4x,5x,6x,7x,8x,
{4}3b-6-8[4:1],{8}3V15[4:1],1,3-6-8[4:1],,3V15[4:1],1,3-6-8[4:1],,3,1,3-1[8:1],,3/6V84[4:1],7,6-3-1[4:1],,6V84[4:1],8,6-3-1[4:1],,6V84[4:1],8,6-3-1[4:1],,6,8,7,6,5/1,3/7,
{24}6xV83[4:1]/2b,5,4,,,,{8}6V41b[4:1]/2,,6V83[4:1],,6V41b[4:1],4,6V83[4:1],,6V41b[4:1],4,6V83[4:1],,6,4,{24}6x,,,,2,4b/3b,,,7,6b/5b,,,8x/1x,7/2,,,3,4b/2b,,,6,7b/5b,,,5x/4x,6/3,7h[8:1]/2,,,8,6b/1b,5/2,4/3h[8:1],,,2,1b,,1,8,,8,{8}7<4[8:1]*>2[8:1],5/1,
{1}7b^8v2^3-5-7[2:7],,,{4},,{8},4,{24},,4,,,,{8}3h[8:1]/5-7[8:1],,5-2[8:1],,5V38[4:1],{24},,1,5,,2x,,,,{8}3-5[8:1],,3-8[8:1],,3/7V52[4:1],{24},,1,7,,3x,,,,4h[8:1],,,,,6h[8:1],,,,5h[8:1],,{8},6,{24}7,{8}4>1[8:1],3/8,4<7[8:1],,4>1[8:1],,4<7[8:1],,4,{24},,2-4[8:1],,,3,1,,2,8V26[4:1],,,7,,,8,,,,,4-2[8:1],,,3,7,,4,8-4[8:1],,,1,,3,8,,2,3x,,2x,5,,1,2,3,4,8b,,,,,7,5,,5,{8}6<5[2:1],6,6,6,6,6,6,{24}7,8x,1x,2x,3x,4x,2,1x,8x,7x,6x,5x,7,8x,1x,2x,3x,4x,2q7b[8:1],1x,8x,7x,6x,5x,
{4},{24}1b/2bq6[8:1],,,,,1,2x/8xv6[8:1],,,A6h[8:1],,,8x,,4,A6h[8:1],,{24}2,3>8[8:1],4,5,,,8,7p3[8:1],,,,,8,7x/1xv3[8:1],,,A3h[8:1],,,1x,,5,A3h[8:1],,{24}7,6<1[8:1],5,4,,,1,6x/2x,,,4x,,3,5<8[8:1],,6,4,,4,5v3[8:1],,2x,,,,5xq1[8:1],,,A3h[8:1],,,5xv3[8:1],,,A1h[8:1],,,5xq1[8:1],,,A3h[8:1],,,5,,,A1h[8:1],,4<6[8:1],3x,,5,,,4,2pp4[8:1],,,,7,8,2,,1x,,,8,7hx[9:1],,,,,5>3[8:1],6x,,4x,,,5,7qq5[8:1],,,,2,1,7,,8x,,,1,2bx,,8,2,,7,2,,6,2,,5,2,,4,2,,3,2>5[8:1],,1,8,,8,2,,7,6h[4:1],,,{24}7,8x,1x,2x,3x,4x,2,1x,8x,7x,6x,5x,7,8x,1x,2x,3x,4x,2,1x,8x,7x,6x,5x,
{24}3-1[8:1],,2,4,,5,3,,8,,,,6-8[8:1],,7,5,,4,6,,1,,,2,4-8[8:1],,5,1,,3,4,,2,,,7,5-1[8:1],,4,8,,6,5,,7,,,2,3b/4b,,,7,5b/6b,,,,1/8,{8}2b/7b,,,
{1}E7/Ch[24:1]/E3,,{24},,1,8,,2,{4}3b>7-3-5[1:1]/7,6h[8:1],6h[8:1],6h[8:1],6h[8:1],{24}7,,8,4,,3,{12}8,{24}7,3,6,,5,,4,,3,,{4}2b>6[4:1],7h[8:1],7h[8:1],{24}8,,7,4,,2,3x<6[8:1]/5hx[8:1],,2,3x,,,,,,,,7,8<5[8:1],,,,,1,2q4[4:1],3,4,,,6,{4}2b,5h[8:1],{24}5h[8:1],,,,,4,5h[8:1],,,4>6[4:1],,,5h[8:1]/3,,,,,,5h[8:1],,,,,,4,3,2,1,8,7-3[8:1],6/4,,3,5,,7,{4}2h[8:1],2h[8:1],2h[8:1],{24}2h[8:1],,4,5,3,4,5b/7b,,6,5,4b/1b,,,,2,5,3,4,5b/8b,,,,,7,6,8,1,3<6[8:1],2,4,{4}3h[2:3]/5b,,,E5,,E5/B4/B5,,E7/C/E3/B3/B4/B5/B6/E5/B2/B7,
