&title=FULi AUTO SHOOTER
&artist=MYUKKE.
&first=0
&des=
&des_5=Auto_Shooter6
&des_6=ProGect
&lv_5=13+
&lv_6=14
&inote_5=(145){4},{8},,,,,,2/5,
{16}3,4,{4}3h[4:1],4<8[4:1],{8}3,2,
{4}1V35[4:1],6,7V13[4:1],3>5[8:3],
{8}4h[4:1],{16},,,,3,3,4,2,5,1,{8}6h[8:1],5,
4-2[8:1],4,6-4[8:1],6,1-7[8:1],1,5>7[8:3],5,
2h[4:1],{16},,,,3,3,1,4,8,5,{8}7,5/6,
7-1[8:1],7,5-3[8:1],5,6V84[4:1],6,1,2,
{4}3h[4:1],{16}4,3,4,3,{4}5h[4:1],{16}2,5,2,4,
{2}3V51[4:1],{4}8w4[8:1],8,
{8}7,{16}6,5,{4}6h[4:1],5V31[4:1],{8}6,7,
{4}8V64[4:1],3,2V86[4:1],6<4[8:3],
{8}5h[4:1],{16},,,,6,6,5,7,4,8,{8}3h[8:1],4,
5-7[8:1],5,3-5[8:1],3,8-3[8:1],8,4<2[8:3],4,
7h[4:1],{16},,,,6,6,8,5,1,4,{8}2,4/3,
2-5[8:1],5-2[8:1],6,7,8-4[8:1],8,2,2,
{4}1b-5[8:1],{8}1/8b,7,{4}7bV53[4:1],{8}7b/3>5[8:3],2,
{2}1h[8:3],{4}1w5[8:1],1,
{8}3h[8:1]/7v4[8:1],8,7,3,2-5[8:1],1,2/8,7,
8-4[8:1],{16}4,4,{8}8,3,2<7[8:1],2,5-8[8:1],5,
3-5[8:1],2,3,6,7-4[8:1],4-8[8:1],7,2,
1q5[8:1],7,1,6,7-4[8:1],{16}8,8,{8}7,1,
5/2-5[8:1],1,2,6,7-4[8:1],8,7/1,2,
1-5[8:1],{16}5,5,{8}1,6,7>2[8:1],8,4-1[8:1],3,
6-4[8:1],7,6,3,2-5[8:1],5-1[8:1],2,7,
8p4[8:1],2,8,3,2-6[8:1],{16}1,1,{8}2,8,
{4}7h[4:3]/5V38[8:3],,,8,
{2}6h[4:1]/8V25[8:3],6<1[8:1],
{4}3h[4:3]/4V61[8:3],,,1,
{2}4h[4:1]/1>7[2:1],1-5[8:1],
{8}4/6h[8:1],4,5/3h[8:1],5,2/4h[8:1],2,5/1h[8:1],{16}6,6,
{8}4/7h[8:1],4,5/3h[8:1],5,2/6h[8:1],1,7/8,1/6,
{16}2,5,4,5,3,6,5,6,{32}1,2,3,4,5,6,7,8,1,2,3,4,5,6,7,8,
{4}5/1pp4[4:1]*qq6[4:1],,,3V16[4:1]/6-4[8:1],
6bV83[4:1],3V58[4:1],{8}6,7qq1[8:3],,1,
{4}1-5[8:1],4b,{8}4/8,{16}7,5,{8}6<1[8:1]*qq2[8:3],7,
{4}6b,{8}1,1V74[4:1],,3-8[8:1],2,3,
{4}5<8[8:1]*>2[8:1],5,{8}1,4/6,7-4[8:1]/3V57[4:1],8,
{4}7bV13[4:1],4-8[8:1],{8}4pp7[2:1],3,,2,
{4}1b>4[8:1],1,{8}8,{16}4,7,{8}3-8[8:1]/7V53[4:1],2,
{4}3b<8[4:1],{8}1pp4[8:3],1,,6,6,7,
{4}8<5[8:1]/3>8[8:1],3/8,{8}1/7,4/5,{4}6V83[4:1]/3-5[8:1],
3bV16[4:1],6V41[4:1],{8}3,2pp8[8:3],,8,
{4}8-4[8:1],5b,{8}1/5,{16}2,4,{8}3>8[8:1]*pp7[8:3],2,
{4}3b,{8}8,8V25[4:1],,6-2[8:1],7,6,
{4}4-1[8:1]*-7[8:1],4,{8}3/5,1/7,2-5[8:1]/6V42[4:1],1,
{4}2bV86[4:1],5-1[8:1],{8}5qq2[2:1],6,,7,
{4}8b<5[8:1],8,{8}1,{16}5,2,{8}6-1[8:1]/2V46[4:1],7,
{4}6b>1[4:1],{8}8qq5[8:3],8,,3,3,2,
{4}1-4[8:1]/6-1[8:1],6/1,{8}3/7,4/6,{4}1w5[8:1],
{1}1b>8[2:3]*<2[2:3],
{2},,2V46[4:1],
7V53[4:1],
1s5[8:1],{16}6h,4h,7h,5h,{4}8<5[8:1],
{8}8b,{16}4,4,{8}3V14[4:1],2,3/4-8[8:1],5,5,6,
7<4[8:1],{16}8,8,{8}7qq3[2:1],1,2h[16:1],2h[16:1],1h[16:1],1h[16:1],
8b>3[8:1],{16}4,4,{8}8V61[4:1],5,8/1-5[8:1],2,2,3,
4-1[8:1],{16}3,6,{8}4<2[4:1],{16}5,2,{8}4,3,{4}4h[8:1],
{8}4/8,{16}7,5,{8}6,4/5,3-8[8:1],2,6-4[8:1],7,
1,{16}2,2,{8}5,4/6,7-4[8:1],6,2-8[8:1],1,
5,{16}6,6,{8}1,2/8,3-5[8:1],2,6-1[8:1],7,
4,{16}3,3,{8}8h[8:1],{16}2,1,{8}3h[8:1],{16}5,4,{8}6h[8:1],8,
5/1-3[8:1],5,5/1-6[8:1],5,4/1,4,2/5,6,
3/7<4[8:1],3,2/7-3[8:1],2,1/7,1,5,4/6,
{16}7,4,5,4,6,3,4,3,{32}8,7,6,5,4,3,2,1,8,7,6,5,4,3,2,1,
{4}8V61[4:1]/4V25[4:1],,,7b/3b-8[8:1],
{8}6/3V15[4:1],{16}5,5,{8}3,6,7v4[8:1],8-3[8:1],7,8,
5<8[8:1],{16}6,4,{8}5,3,4-8[8:1],2-5[8:1],4,2,
7-4[8:1],{16}8,8,{8}7,1,2-6[8:1],6<1[8:1],2,5,
4-7[8:1],{16}5,2,{8}4-1[8:1],{16}3,6,{8}4,8,{4}3b/7b-5[8:1],
{8}4/7V15[4:1],{16}3,3,{8}7,2,8-3[8:1],6-1[8:1],8,6,
4>1[8:1],{16}3,5,{8}4,6,7-4[8:1],3-8[8:1],7,3,
5-1[8:1],{16}2,2,{8}5,3,4-1[8:1],1V35[16:3],4,8,
7>2[8:1],{16}6,5,{8}7<4[8:1],{16}3,3,{8}7,1,{4}3b/7b,
{16}2,4,3,5,2,4,{8}3h[8:1],{16}6,5,7,4,6,5,{8}7h[8:1],
{16}4,5,3,4,2,5,{8}1h[8:1],{16}7,8,6,2,4,3,{8}5h[8:1],
{16}2,1,3,6,5,7,{8}4h[8:1],{16}7,8,6,3,4,2,{8}5h[8:1],
{16}2,4,3,5,4,6,{8}5,1w5[8:1],3/7,
E
&inote_6=(145){4},{8},,,,,,2/8h[8:1],
1,{4}7h[4:1],5h[4:1],{8}6,5,
7h[8:1],3,2h[8:1],5,6h[8:1],4,{4}3/7<4[8:1],
{8}7/3h[4:1],{16},,,,4,3,{8}4,2,5/1-3[8:1],6,
1-5[8:1],4,1-3[8:1],7,1,5,1/6<1[8:1],3,
6/2h[4:1],{16},,,,8,1,{8}8,2,3/7-3[8:1],6,
7-5[8:1],2,7-1[8:1],4,7,2,8/3>8[8:1],4,
3/7,7,{16}5,6,5,7,{8}4h[8:1],8,{16}1,2,1,3,
{4}8p5[2:1],,,3h,
{8}2b/6b,8,{4}1h[4:1],7h[4:1],{8}5,6,
4h[8:1],5,6h[8:1],4,3h[8:1],5,{4}6/2>5[8:1],
{8}2/6h[4:1],{16},,,,4,5,{8}4,6,7/3-1[8:1],4,
3-5[8:1],6,3-7[8:1],8,3,5,6<1[8:1],4,
6/2,2,5,{16}3,4,{8}2,6,5/7,1,
2/4,7,5/8,3,5/2,6,7/4-8[8:1],{16}3,3,
{8}4-1[8:1],2,4/5,6,7-5[8:1],{16}8,8,{8}7-3[8:1],1,
{4}7/8pp4[2:1],5,{2}7V58[8:1],
{8}2b,7/4,3h[8:1],5,6/2,4,7/3,1h[8:1],
8p4[8:1],{16}2,2,{8}8,1,6/2>5[8:1],1,2/7,6,
8/4,3h[8:1],5,2,7/4,6,5/2,3,
7/4p8[8:1],6,4,7,2/6<1[8:1],{16}5,5,{8}6/3,4,
2>4[8:1],1,2,8,5-1[8:1],6,5,7,
8<5[8:1],{16}1,1,{8}8,2,3>8[8:1],4,3/6,5,
7<5[8:1],8,7,1,4-8[8:1],3,4,2,
1>4[8:1],7,1,8,6<1[8:1],{16}5,5,{8}6,4,
7/3p7[8:1],4,3/5,6,5<8[8:1],4,5,3,
2q6[8:1],{16}1,1,{8}2,8,7<4[8:1],1,7,2,
6/1-5[8:1],8,1,7,6<1[8:1],4,6,3,
2>5[8:1],1,2,8,7p3[8:1],{16}1,1,{8}7,2,
1h[8:1],8,1,7,6,5,6,{16}4,5,
{8}3,{16}6,5,{8}7h[8:1],4,3h[8:1],5,2/6,{16}8,1,
8,2,7,3,6,4,5,3,{32}6,7,8,1,2,3,4,5,6pp1[2:1]*qq4[4:1],7,8,1,2,3,4,5,
,,,,,,,,,,,,,,,,{16}5h,4h,3h,2h,{4}1>4[8:1]/6<1[8:1],
{2}6b/1bV75[8:1],{8}4,3>8[8:1],,3/5,
{4}7<4[8:1]*p3[8:1],7,{8}2h[8:1],{16}8,8,{8}1V38[4:1],7,
{4}8V25[4:1],{8}6,7,8h[8:1],4,2>5[8:1],7,
{4}2/6<1[8:1]*q2[8:1],6,{8}3h[8:1],4,2>5[8:1]/5<8[8:1],1,
{2}2/5V31[8:1],{8}8,7<4[8:1],,7/3,
{4}2<7[8:1]*p6[8:1],2,{8}4h[8:1],{16}5,5,{8}4V25[4:1],6,
{4}5V38[4:1],{8}7,6,5h[8:1],1,3>8[8:1],6,
{4}3/7<4[8:1]*p3[8:1],7,{8}2h[8:1],1,{4}8<5[8:1]/3>8[8:1],
{2}3/8V24[8:1],{8}5,6<1[8:1],,6/3,
{4}2q6[8:1]*>5[8:1],2,{8}7h[8:1],{16}1,1,{8}8V61[4:1],2,
{4}1V74[4:1],{8}3,2,1h[8:1],5,7<4[8:1],2,
{4}7/3>8[8:1]*p7[8:1],3,{8}6h[8:1],5,7<4[8:1]/4>1[8:1],8,
{2}7/4V68[8:1],{8}1,8/2>5[8:1],,2/6,
{4}7>2[8:1]*q3[8:1],7,{8}6h[8:1],{16}4,4,{8}5V74[4:1],3,
{4}4V61[4:1],{8}2,3,4h[8:1],8,6<1[8:1],3,
{4}6/2>5[8:1]*q6[8:1],2,{8}8h[8:1],5,{4}7>6[2:7]/4qq7[2:7],
{1}4b/7,
,,,{32}1b-7[8:1],
2,3,4,{8}7-3[8:1],{4}6-4[8:1],{8}6,2h[8:1],1,3,
{32}8-2[8:1],7,6,5,{8}2-6[8:1],{4}3-5[8:1],{8}3,7h[8:1],8,6,
{32}1-7[8:1],2,3,4,{8}7-3[8:1],{4}6-4[8:1],{8}6,2h[8:1],1,3,
{32}8-2[8:1],7,6,5,{8}2-6[8:1],{4}3-5[8:1],{8}3,7h[8:1],8,7,
5/1,{16}3,4,{8}2-6[8:1],6-4[8:1],2/7-1[8:1],8,7,{16}2,3,
{8}4/8,{16}6,5,{8}7-3[8:1],3-5[8:1],7/2-8[8:1],1,2,6h[8:1],
5,{16}6,5,{8}7-1[8:1],1-5[8:1],7/4-2[8:1],3,4,6h[8:1],
1,{16}7,8,{8}7-5[8:1],5-1[8:1],2,{16}2-6[8:1],3,{8}4,2,
8-4[8:1],8,7-3[8:1],7,6-2[8:1],6,5-1[8:1],5,
4-8[8:1],4,3-7[8:1],3,2-6[8:1],2,1,1,
{16}2,8,3,7,4,6,5,7,{32}3,4,5,6,7,8,1,2,3,4,5,6,7,8,1,2,
{8}3/7V15[4:1],6,{4}7/5-7[8:1]*-3[8:1],,1b,
{8}7b/3b,{16}2,3,{8}4/8-4[8:1],7,8/3-8[8:1],2,3/5,{16}5,6,
{8}2/7,{16}1,2,{8}3/5<8[8:1],6,5/2q6[8:1],1,2,7,
8/4,{16}7,6,{8}5/1-5[8:1],2,1/6-1[8:1],7,6/4,3,
7/2,{16}8,7,{8}6/4>1[8:1],{16}5,6,{8}4/7p3[8:1],8,7,1,
2/6,{16}1,2,{8}3/8-4[8:1],7,8/2>5[8:1],1,2/7,{16}8,7,
{8}6/1,{16}3,4,{8}2-6[8:1],6-4[8:1],2/7-1[8:1],8,7,3h[8:1],
6,{16}6,5,{8}7-3[8:1],3-5[8:1],7/2-8[8:1],1,2,6h[8:1],
5,{16}7,6,{8}5/1>4[8:1],{16}4,5,{8}6/1-5[8:1],{16}7,6,{8}5/1,8,
{4}3/7<4[4:1],4>1[4:1],1<6[4:1],6>3[4:1],
3>8[4:1],8<6[4:1]*<6[4:1],5,3h[4:1],
4h[4:1],5h[4:1],6h[4:1],2h[4:1],
4h[4:1],6h[4:1],{2}8s4[4:1]*-4[4:1],
E
