&title=Melodiniq
&artist=onoken a.k.a.owl*tree
&first=0.03
&des=魔曲之魂
&lv_5=15
&inote_5=(193)
{16},,,,,,,,,,,,,,,,{2}1h[2:1],6h[1:1],
{12}D7,D6,D5,D4,D3,D2,D1,D8,D7,D6,D5,D4,
{2}8h[2:1],3h[1:1],
{12}E3,E4,E5,E6,E7,E8,E1,E2,E3,E4,E5,E6,
{12}2,5,1,6,8,7,5,6,4,7,3,8,
{12}E2,E1,E8,E7,E6,E5,A8,A1,A2,A3,A4,A5,
{2}A6h[8:15]/A7h[8:15],A3h[8:11]/A2h[8:11],
{2}B7h[8:7]/E7h[8:7]/B6h[8:7],B2h[8:3]/E3h[8:3]/B3h[8:3],
{32}A4/A8,B4/B8,Cf,B1/B5,A1/A5,,,,{4},,,
{1},,7h[4:10],
{4}1<1[4:8],,,,,,,,
{8}1<1b[2:3],,
{4},,,E6h[4:2]/E5h[4:2]/E4h[4:2],,,,
{8}2h[4:1],{16}5,,6,,7,,8,,2,,3,,4,,
{8}5h[4:1],7,8,1,2,4,5,6,
{8}7h[8:2],,{24}1,,,{16}2,3,{8}4pp6[8:2],,6>2[1600:533],,
{8}3^8[8:2],{16},,,,7,6,5,4,3,2,1,8,7,6,
{8}4b/5h[4:3],{8},,7,8,1,2h[8:2],,
{4}4>5[2:1],4h[8:4],,,
{24}3,6,2,7,1,8,{16}2,7,3,6,{12}4,5,3,6,{24},{8}2,
{16}7,,,,{48}1/8,,,,,,,,,,,,
{24}D1,E8,E2,E7,E3,E6,E4,D5,,{16},,
{8}2-4[8:1],,1/2,,8-3[8:1]/5,7,6,,
{8}5-2[8:1],,5/7,,8-4[8:1]/3,2,1h[8:2],,
{8}5,6,7/8,1,2-4-7[32:7],8,7,6,
{16}5hx[1:0],8,6,1,7,2,8,3,1-3-5[32:6],,8,,1/7,,,,
{8}7-4[8:1],,8/7,,1-5[7:1]/6,2,3,,
{8}4-7[8:1],,4/2,,8^2-5[32:6]/6,5,4h[8:2],,
{16}6,7,8,1,5,6,7,8,4,5,6,7,3,4,5,6,
{16}1h,7,2h,8,3h,1,4h,2,4h,5,3h,6,2h,7,1h,8,
{4}2q6[32:5],7q3[32:5],4q8[32:5],1q5[32:5],
{4}6q2[32:5],3q7[32:5],{16}1,,2,,3/8,,,,
{4}6q2[32:5],3<7[32:5],8q4[32:5],5xq1[32:5],
{4}2q6[32:5],7>3[32:5],{16}5,,6,,7/4,,,,
{8}8/1,{16}2,1,{8}3h[8:1],{16}7,,7-1[8:1],5,{8}6,4,3,
{16}8/2,,{16}7,8,{8}6h[8:1],{16}2,,2-4-8[32:7],4,{8}3,5,6,
{16}7,1,7,1,{8}8h[8:1],{16}2,4,2,4,{8}3h[8:1],{16}6,5,7,5,
{8}7h[8:1],{16}1,8,2,8,2h[8:1],,5>8[32:6],3,6,4,{4}A5/7-3b[8:1],
{32}7b-1-4-7[4:13]*-5-2-7[4:13],Cf,,,{8},,,{4},{8},,
,,,,,,,,{4},
{8},,,,,,
,,,,,,{4},
{256}1pp4[32:38]*pp4[32:38],,,,{64},,,{16},{8},,,{4},{8},,
,1xpp5[8:8],1xpp7b[8:10],,,,,,{4},
{8},,,,,,
{32}2,4,3,5,4,6,5,7,{24}4,6,3,5,2,4,{16}3,5,4,6,{12}1,8,1,
{8}7h[8:4],,,,{4}8h[8:3],{8},1h[2:1],
{8},,,3h[8:2],5h[8:3],,4h[8:3],,
{8},3,,7h[8:2],5h[8:3],,6h[8:3],,
{8},7,,8/2,,4,5,6,
{8}7h[8:4],,,,{4}8h[8:3],{8},1h[2:1],
{8},,,3h[8:2],4h[8:3],,5,5>1[32:8],
{8},7,,6h[8:2],5h[8:3],,4,4<8[32:8],
{8},2,,,1,2,3,4,
{8}7/5,{16}3,4,{8}2,1/8,{16}7,5,{8}6,3/4,2,
{16}8,5,7,5,{8}6,{16}3,4,{16}2,4,1,,{16}6/8,,5,,
{16}2/4,,6,5,{8}7,{16}1/8,,{16}2,4,3,,{8}5/6,{16}7,,
{24}2/8,3,4,5,{48},{16},{8}7,{24}7/1,2,3,
{24}4,5,6,7,8,1,2/4,,,{16}7/8,,
{24}6,5,6,{16}3,1,2,8,2,8,{24}3,4,3,{16}6,8,7,1,7,1,
{24}6,5,4,8,7,6,2,1,8,4,3,2,
{32}E7,B6,B5,E5,E3,B2,B1,E1,{64}A7,D7,A6,D6,A5,D5,A4,D4,A3,D3,A2,D2,A1,D1,A8,D8,
{1}4xq5[8:4],
(196)
{4}A6h[8:5]/E7h[8:4]/B6h[8:3]/E6h[8:2],{8}A1,A2,A3,B4h[8:2]/A4h[8:6],,,
{16}E8,E1,E2,E3,E4,E5,E6,E7,{16}A3/E3,A2/E2,A1/E1,A8/E8,{16}A7/E7,A6/E6,A5/E5,A4/E4,
{8}A3h[8:2],1,{16}A5h[8:2],,7,,A2h[8:2],,8<4[32:7],,,,,,
{8}3h[8:2],
{16}D4,D3,D2,D1,D8,D7,
{16}Ch[8:2]/D6h[8:4]/E4,E3,E2,E1,E8,,,,
{4}A2h[16:4]/E3h[16:6]/A3h[16:5],
{24}A5,E6,E7,A7,E8,E1,{8}A1h[8:2],,
{24}A2,E3,E4,A4,E5,E6,
{8}A6h[8:3],,
{8}E8h[32:5]/D8h[32:4]/B8h[32:6]/E1h[32:7]/D1h[32:8],,{32}D6,A5,D5,A4,
{32}D4,A3,D3,A2,D2h[8:2]/7x,,,,6,,,,
{8}5h[8:2],B7,3h[8:2],E2,{8}7h[8:2],E6/B5,1h[8:2],E4/B3,
{8}D1h[8:2],D2h[8:2],D3h[8:2],,
{36}A4,E5,B5,B6,B7,B8,B1,B2,B3,B4,E5,A5,D6,A6,D7,A7,D8,A8,
{4}D1f/A2h[8:5]/E3h[8:4]/B2h[8:3]/E2h[8:2],{8}A5,A6,A7,B8h[8:2]/A8h[8:6],,,
{16}E4,E5,E6,E7,E8,E1,E2,E3,{16}A7f/E7,A6/E6,A5/E5,A4/E4,{16}A3/E3,A2/E2,A1/E1,A8/E8,
{8}A7h[8:2],5,{16}A1hf[8:2],,3,,A6h[8:2],,4>8[32:7],,,,,,
{8}7h[8:2],
{16}D8,D7,D6,D5,D4,D3,
{16}Ch[8:2]/D2h[8:4]/E8f,E7f,E6f,E5f,E4f,,,,
{4}A6h[16:4]/E7h[16:6]/A7h[16:5],
{24}A1,E2,E3,A3,E4,E5,{8}A5h[8:2],,
{24}A6,E7,E8,A8,E1,E2f,
{8}A2h[8:3],,
{8}E4h[32:5]/D4h[32:4]/B4h[32:6]/E5h[32:7]/D5h[32:8],,{32}D2,A1,D1,A8,
{32}D8,A7,D7,A6,D6h[8:2]/3x,,,,2,,,,
{4}1-5b[8:1],
{8}6>8[8:6]*>7b[8:7],,4>6[8:6],3>5b[8:6],2<4[8:6],1,
{16},,Ch[8:5],,{4},{32},,,,,,,,,,,,,,,,
(206)
{32}1x,2x,3x,4x,{24}2x,3x,4x,{16}3x,4x,{32},4x,,,
{16}5x,4x,{24}6x,5x,4x,{32}7x,6x,5x,4x,{40}8x,7x,6x,5x,4x,
{32}7x,6x,5x,4x,{24}6x,5x,4x,{16}5x,4x,{32},4x,,,
{16}3x,4x,{24}2x,3x,4x,{32}1x,2x,3x,4x,{40}8x,1x,2x,3x,4x,
{8}5x/7x-2[8:1],,1-5[8:1]/7,,4^7[8:1]/1x,,8-2-5b[64:18]/4,,
{32}A8/1h[8:2],E1,E2,A2,E3,B3,B4,E5,A5,,,,3,,7,,{16}4,6,3,7,2,8,1h[8:1],,
(209)
{32}8x,7x,6x,5x,{24}7x,6x,5x,{16}6x,5x,{32},5x,,,
{16}4x,5x,{24}3x,4x,5x,{32}2x,3x,4x,5x,{40}1x,2x,3x,4x,5x,
{32}2x,3x,4x,5x,{24}3x,4x,5x,{16}4x,5x,{32},5x,,,
{16}6x,5x,{24}7x,6x,5x,{32}8x,7x,6x,5x,{40}1x,8x,7x,6x,5x,
{8}4x/2x-6[8:1],,8-4[8:1]/2,,5^2[8:1]/8,,{32}1/5,8,7,6,,,,,
{16}3,1,2,8,5,6,3,4,2,8,1,7,5,6,3,5,
(212)
{12}4x,4x,4x,{24}3x,4x,5x,4x,3x,4x,
{36}6x,5x,4x,2x,3x,4x,6x,5x,4x,
{48}1x,2x,3x,4x,7x,6x,5x,4x,1x,2x,3x,4x,
{12}8x,8x,8x,{24}1x,8x,7x,8x,1x,8x,
{36}6x,7x,8x,2x,1x,8x,6x,7x,8x,
{48}3x,2x,1x,8x,5x,6x,7x,8x,3x,2x,1x,8x,
(215)
{12}6hx[1:0],5x,4x,3x/6,5,4,{16}3/7,8,1,2,7/3,8,1,2,
{20}8/3,7,6,5,4,3/8,7,6,5,4,{24}3/5,6,7,8,1,2,3/5,6,7,8,1,2,
(218)
{4}3-6[8:1]/5-8[8:1],{8}3/5,,1-5[8:1],7^4[8:1],1,7,
{16}3,2,1,8,{24}3,2,1,8,7,6,{32}3,4,5,6,7,8,1,2,7,6,5,4,3,2,1,8,
(221){4}7-4[8:1]/5-1[8:1],{8}7/5,,8v3[8:1],5^8[8:1],8,5,
{16}2,1,3,8,4,7,5,6,{12}3h[24:1],4h[24:1],1h[24:1],8h[24:1],5h[24:1],6h[24:1],
(224)
{48}4x,3x,2x,1x,5x,6x,7x,8x,4x,3x,2x,1x,{36}6x,7x,8x,3x,2x,1x,6x,7x,8x,
{24}2x,1x,7x,8x,2x,1x,{12}8x,1x,8x,
{48}1x,2x,3x,4x,8x,7x,6x,5x,1x,2x,3x,4x,{36}7x,6x,5x,2x,3x,4x,7x,6x,5x,
{24}3x,4x,6x,5x,3x,4x,{12}5x,4x,5x,
(227)
{8}1h[16:1],2/8h[16:1],3h[16:1]/7,6h[16:1]/4,
{8}7/8h[16:1],1/6h[16:1],2h[16:1]/5,3/4h[16:1],
{16}2,8,5,6,3,4,1,7,{32}2x,3,4,5,8x,1,2,3,6x,7,8,1,4x,5,6,7,
(230){24}1h,8,1,8,1,8,{24}1,8,1,8,1,8,{16}2,7,3,6,4,5,4,5,
{16}3b,1,3,8,3,7,2b,6,2,5,2,4,1b,3,1,2,
{1}8bxs4b[1.0435##0.6522]*z4b[1.0435##0.6522]*<4[8:5]*>4[8:5],
{4},,,,
(236)
{4}3^1[8:1]/4,
{8}4,4>8[6:1],3,3,,4x,
{8}3-1[8:1],4,4,4,3x^1[8:1],4p8[6:1],3,4,
{4}3hx[8:2],{8}2-8[8:1],4-2[8:1],2,4<8b[6:1],{48},,,,,,{24}E5,E6,E7,
{48}E8,,,,,,{8}1,{4}2-5[8:1],{8}8-4[8:1],8-2[8:1],,,
{4}6^8[8:1],
{8}5,5<1[6:1],6,6,,5x,
{8}6-8[8:1],5,5,5,6x^8[8:1],5q1[6:1],6,5,
{4}6hx[8:2],{8}8b,1b/E5/D5,2b/E6/D6,3b/E7/D7,4b/E8/D8,E1f/D1/5^7p2^4-8b[32:22],
{8},,,,,,,,
{4}7h[4:1],1-6[8:1],{32}E3,B3,B4,E5,{8},,3h[4:1],
{8},8,{8}8-4[8:1],,{32}A7,E7,E6,A5,{8},,,
{8}4,3,{4}1v4[8:1]/2-5[8:1],{32}D2,B2,B4,D5,{8},,6h[4:1],
{8},7,{4}7v5[8:1]/8-6-4[7:1],{24}D8,B6,D5,{8},,,,3/4,
{4}2h[8:2]/5,{8}7^1[8:1],1v6[32:5],,,
{16}2,3,4v7[7:1],,,,7,8,1<4[4:1],,3hx[8:5],,,,,,
{4}A4h[8:4],{8},,{24}2,1,8,7,6,5,4,3,2,1,8,7,
{8}B5/E5/B4,,,,,{16}4,5,3,6,2,7,
(240)
{4}1h[32:7]/8h[32:7],{32}D1f,E1,E8/B8/B1/E2,C,E5,D5,,,{8},,,,
{12}8,7,6,5/4,3,2,8,7,6,5/4,3,2,
{8}8^5[6:1],1,2,,4^7b[6:1],3,2,,
{8}8/1-5[8:1],2,3,4,{16}6,7,8,1,2,1,8,7,
{12}6,4,4,6,3,3,6,2,2,{8}6h[4:1],1,
{16}8,7,6,5,{16}4/8<3b[4:1],3,2,1,8/4,,,,{48}D2,A1,D1,A8,D8,A7,D7,A6,D6,A5,,,
{24}2,4,2,4,,,3h[8:1],,{24},7,5,7,5,,,6h[8:1],,,{8}1^3[8:1],1-4[8:1],
{8}1x-5[8:1],1x,1x^3b[8:1],1x-4b[8:1],1x-5b[8:1],1x,1x,8x,
{8}7,6,{8}5-1b[8:1],4,7x-4[8:1],6x,8h[8:2],,
{12}5,6,7,8/3,2,1,{12}7/8-2-6b[64:10],6,5,4h[8:2],,,
{8}7bx^2b[8:1],5,7,5b-1[8:1],3,5,3b^6b[8:1],8,
{8}3,8b-4[8:1],2,8,2b-5[8:1]*-7[8:1],,2b,,
{8}4/8,3h[8:2]/1,,5h,{16}2,6,3,7,4,8,5h[8:1],,
{16}1,2,3,4,8,1,2,3,7,8,1,2,6,7,8,1,
{24}5,4,6,5,,,{8}7h[8:1],{24}1,8,2,1,,,3h[8:1],,,6,5,7,6,,,
{24}8h[8:1],,,2,1,3,2,,,{8}4h[8:1],7-3[8:1],3-5-8[9:2],7,,
{16}1,,1,,{16}7,5,6,3,4,2,8,1,{24}6,4,5,{8}3h[8:1],
{16}8,,8,,{16}2,4,3,6,5,7,1,8,{24}3,5,4,{8}6h[8:1],
{24}1,8,7,6,5,4,{24}E1,E8,E7,E6,E5,,{24}1,2,3,4,5,6,{24}E5,E4,E3,E2,E1,,
{24}5,4,3,2,1,8,{24}E8,E1,E2,E3,E4,,{24}5,6,7,8,1,2,{24}E6,E7,E8,E1,E2,,
{16}3bx/5bx,,,,6,6,8,7,1,1,3,2,6,6,4,5,
{24}2,1,3,8,4,7,3,8,4,7,5,6,8,7,1,6,2,5,1,6,2,5,3,4,
{24}1h,8h,7h,6h,5h,4h,
{24}3h/7,2h/6,1h/5,4,3,2,
{24}1/5h,8/4h,7/3h,2h,1h,8h,
{24}7,8,7,8,7,8,
{24}7/1h,6/2h,5/3h,4,3,2,1/7h,6h/2,5h/3,4,5,6,
{24}1h/7,6/2h,5/3h,4,3,2,1/7h,6h/2,5h/3,4,,,
{1}E8/E1/D8/D1/B8f/8bw4b[4:9],
{4},,,,,,,,1^8-4^5-1[4:36],
,,A7h[24:113]/B7h[24:95]/E7h[8:22]/B6h[24:87]/A6h[24:103],
,,{2}A2h[24:90]/B2h[24:73]/E3h[8:16]/B3h[24:81]/A3h[24:100],
{8},,,,,,,,
{4},,{8},,,,
{4},,,,,,,,,Cf,
E
