&title=Sacrifice
&artist=逢瀬アキラ/PCゲーム「ふゆから、くるる。」OPテーマ
&first=1.08
&des_5=Ragna
&lv_5=13+
&des=Ragna
&wholebpm=210
&demo_seek=66.7
&demo_len=22.6
&inote_5=(210){1},,,,{8}
1b<2[8:5],,,,,,,7b>6[8:5],
,,,,,,,3b<2[8:5],
,,,,,,,5b>6[8:5],
,,,,,,,,{16}
4,5,4,5,4,5,4,5,4,5,4,5,4,5,4,5,
4,5,4,5,4,5,4,5,4,5,4,5,4,5,4,5,
{8}4b<3[4:7],,,,,,,,
,,,,,,,,
4>5[4:3],,,,,,,,
1s5[16:5],,,,8,8,8,4-8[8:1],
,7,7,1,8,72,,6-1[8:1],
,5,5,8,4,73,,2-5[8:1],
,6,6,4,5,36,,7-3[8:1],
,2,2,4,{16}1,1,{8}5,2,6-3[8:1],
,1,1,4,3,25,,4-1[8:1],
,7,7,2,8,37,,6-2[8:1],
,4,4,1,2,83,,1-5[8:1],
,6,6,4-6[8:1]*-2[8:1],,4b,{4},
7qq8[8:11]/1h[8:1],1h[8:1],1h[8:1],1h[8:1],
1h[8:1],1h[8:1],1h[8:1],1h[8:1],
3pp1[8:11]/8h[8:1],8h[8:1],8h[8:1],8h[8:1],
8h[8:1],8h[8:1],8h[8:1],8h[8:1],
5qq8[4:5]/1h[8:1],1h[8:1],1h[8:1],1h[8:1],
1h[8:1],1h[8:1],1h[8:1],1h[8:1],
1h[4:1]/8h[4:1],{8},2h[4:1]/4h[4:1],,,7h[4:1]/5h[4:1],,
,1-3[8:1],8-6[8:1],1-5[8:1],8,1b,,,
3V14[4:1]/4V63[4:1],,3^8[8:1]/4^7[8:1],,,,,1h[4:1],
,7,28,3,17,6,28,,
6V85[4:1]/5V36[4:1],,6^1[8:1]/5^2[8:1],,,,,8h[4:1],
,2,17,6,28,3,17,,
4-1[8:1]/5-8[8:1],,45,,27,2q7[8:1]/7,,5p4[16:7],
,,8,,1,,2,,
3h[4:1]/5h[4:1],,,7h[4:1]/4h[4:1],,,1h[4:1]/5h[4:1],,
,8h[4:1]/3h[4:1],,,1v4[8:1]/7v4[8:1],,17,,
3-8[8:1],,35,,6-1[8:1],,64,,
2-5[8:1],,82,,7-4[8:1],,17,,
3p7[8:1],5h[8:1],,6q2[8:1],4h[8:1],,3p7[8:1],5h[8:1],,6q2[8:1],4h[8:1],,3,5,26,,
7v4[8:1],,71,,2v5[8:1],,28,,
6v1[8:1],,64,,3v8[8:1],,35,,
7qq5[8:1],1h[8:1],,2pp4[8:1],8h[8:1],,7qq5[8:1],1h[8:1],,2pp4[8:1],8h[8:1],,7,1,26,,
3^8[8:1],,35,,6^1[8:1],,64,,
2^5[8:1],,28,,7^4[8:1],,71,,
2qq1[16:3],,,6qq5[16:3],,,2qq1[16:3],,,6qq5[16:3],,,2-6[8:1],,,,
75,7,46,4,53,5,24,2,15,1,17,1,
13,1,16,1,
82,82,,61,61,,34,34,
,48,48,,7^4[8:1]/3v8[8:1],,73,,
1h[8:3],,,2h[8:3],,,3h[8:3],,
,4h[8:3],,,5>1[4:1],,,,{16}
7,6,5,4,3,2,1,8,72,3,4,5,6,7,8,1,{8}
2-6[8:1],7-3[8:1],2,7,,81,81,,
{32}2b/7b,36,45,,{8},36,,25,25,,
{32}1b/8b,27,36,45,{8},,27,,1-4[8:1],8-5[8:1],1,
8,,36,2,74,6,2>1[8:3]/5,,2b/7b,,,,,,5,3,8,{16}
1/2^4[8:1],,,5,,,7,,1/2^5[8:1],,,5,,,7,,
1/2-5[8:1],,,5,,,7,,1/2q6[8:1],,,5,,,7,,
{24}1h[8:1]/2b,3,4,5,,,,,,7b/8h[8:1],6,5,4,,,,,,1h[8:1]/2b,3,4,5,,,
,,,7b/8h[8:1],6,5,4,,,,,,{32}1b/8b,2,3,4,5,6,7,8,{8}1/5b,,
{32}2b/7b,36,45,,{8},36,,74,74,,{32}1b/8b,27,36,45,
{8},,27,,8-5[8:1],1-4[8:1],8,1,
,36,7,25,3,7<8[8:3]/4,,7b/2b,
,,,,,4,6,2,
{16}8/7^5[8:1],,,3,,,1,,8/7^4[8:1],,,3,,,1,,{8}
7b^2[8:1]/8b^5[8:1],,8bp4[8:1]/7bq3[8:1],,7b/8b,,1pp8[1:1]/5pp4[1:1],15,
,,,,,,,,
,,,,,18,27,36,{16}
4,5,4,5,3,5,3,5,2,5,2,5,{8}1,,
2b/6b,2b/6b,,,,,,2-5[8:1],
5,2,7,4,8,72,,6-1[8:1],
3,6,5,8,2,35,,2-6[8:1],
5,2,7,5,8,71,,5-1[8:1],
2,5,4,8,{16}2,2,{8}6,3,8-5[8:1],
5,8,3,4,1,26,,3-6[8:1],
5,3,8,5,6,74,,8-4[8:1],
4,8,2,5,1,27,,4-1[8:1],
5,4,7,2,{16}5,5,{8}4,6,73,,
18,2,3,45,6,7,1b/8b,,
7b/2b,7b/2b,,,,,,,
E
