&title=バンパイアメイト
&artist=紺碧studio
&first=0.207
&des=Yummy Yummy
&lv_5=13
&des_5=Yummy Yummy
&inote_5=
(170){4}7V51[4:1],7,{2}4qq3[4:1]*pp5[4:1],
{4},5,5,5,
2V48[4:1],2,{2}5pp6[4:1]*qq4[4:1],
{4},4,4,4,
5-7[8:1]/1-5[8:1],1/5,{2}8v2-4[4:1]*-6[8:1],
{4},5,5,5,
4-2[8:1]/8-4[8:1],8/4,{2}1v7-5[4:1]*-3[8:1],
{8},4,4,4b,,,{4}B6/B3/C/B7/B2,
5q2[8:1],4,1<6[8:1],5,
5q2[8:1],4,1<6[8:1],5,
7q4[8:1],5,3>8[8:1],4,
7q4[8:1],5,3h[4:1],E1/B8/B7/B1/B2,
2p5[8:1],8,2p5[8:1],4,
2p5[8:1],8,2p5[8:1],4,
7q4[8:1],5,7q4[8:1],2,
7q4[8:1],5s1[8:1],,B6/B5/E5/B4/B3,
{8}2-7b[8:1],,,3-6b[8:1],3h[4:1],,,2<7b[8:1],
2h[4:1],,,3<6b[8:1],3h[4:1],,,2V85b[8:1],
2h[4:1],,,3V58b[8:1],3h[4:1],,,2-7-5-1b[8:3],
{4}2h[2:1],,,B7/B8/E1/B1/B2,
{2}6-8[8:1]*-3[8:1],4-7[8:1]*-2[8:1],
8-6[8:1]*-3[8:1],2-7[8:1]*-4[8:1],
6-8[8:1]*-4[8:1],2-8[8:1]*-4[8:1],
{4}7-1-4[16:5]/2V85[16:5],,,1b,
6/2,2/6pp5>6[4:3],,,,,E5,
D5,
3/7,7/3qq4<3[2:1],,,5v8[8:1]*v2[8:1],
5,1v7[8:1]*v4[8:1],1b,
3-1[8:1],3/7qq2[4:1],{8}3,3,,3qq4[4:1],
,5,6,7,8-3[8:1],1-5[8:1],8,1,
{4}4<6-8v1-3[8:3],2,{8}4,4qq1[8:3]*pp7[8:3],{4}4,
,,2v5[8:1]/8v5[8:1],2b/8b,
6-8[8:1],6/2pp7[4:1],{8}6,6,,6pp5[4:1],
,4,3,2,1-5[8:1],8-4[8:1],1,8,
{4}2v3<6[4:1],7,{8}8,8,8,Ch[4:1],
,,{4}B8/B7/B6/A7,B1/B2/A2/B3,Cf/B7/A7/B1/A1/B4/A4,
3-8[8:1],3/4-7[8:1],{8}4/2-5[8:1],2,,7<6v1[4:1],
,5,4,3,2-5[8:1],8-4[8:1],2,8,
{4}1>2-4-8<7[8:3],1/5,{8}5,5pp8[8:3]*qq2[8:3],{4}5,
,,7v4[8:1]/1v4[8:1],7b/1b,
6-1[8:1],6/5-2[8:1],{8}5/7-4[8:1],7,,1>2-5>4[4:1],
,5,6,7,8-4[8:1],1-5[8:1],8,1,
{2}6z2z6[4:3],{8}3,3,4,4qq4pp4[2:1],
,,,,,,{4}B6/C/B7/A7/A6,
{8}3,4,3,5,{4}4h[8:1],{8}3,4,
3,5,{4}4h[8:1],6h[8:1]/5h[8:1],6h[8:1]/5h[8:1],
{8}7/4,6,4,5,{4}4h[8:1],{8}4,5,
4,6,{4}5v3>7b[8:3],{8},,,6v5[8:1],
6h[4:1],,,7q5[8:1],7h[4:1],,,8q5[8:1],
8h[4:1],,,1,{4}1,{8}2,3v4[8:1],
3h[4:1],,,2p4[8:1],2h[4:1],,,1qq4[8:3],
{4}1h[2:1],,,B2/B1/E1/B8/B7,
6/4,6/4,5/3,5/3,
6/4,4/6,5/3,5/3,
{8}6,6,4,4,{16}6,4,5,3,{24}4x,3x,2x,1x,8x,7x,
{4}6x-2[8:1],6/2,7-4[8:1]/3-8[8:1],3b/7b,
5-7[8:1],5/2-4-6-1[4:1],{8}8,8h[8:1],,2-4>8[4:1],
,5,6,7,1x-5[8:1],7-2[8:1],1,7,
{4}4>3-1v8-6[2:1],6,{8}5,5-2-4-8[8:3],{4}5,
,,8-5[8:1]/5>8[8:1],5b/8b,
6-1[8:1],6/3-8-4-6[8:3],{8}1,1xh[8:1],,1<5-7[4:1],
,4,3,2,1-5[8:1],6-3[8:1],1,6,
{4}4v3[8:1],5,{8}8-4-2[8:3],1-5-7[4:1],,,,,{4}8/1,
7-4[8:1]/2-5[8:1],7b/2b,
4x-2[8:1],4/7-5-3-8[4:1],{8}1,1h[8:1],,7-5<1[4:1],
,1,2,3,3-8[8:1],5-2[8:1],3,5,
{4}1>2-4-8<7[8:3],1/5,{8}5,5-2-4-8[8:3],{4}5,
,,8-5[8:1]/5>8[8:1],5b/8b,
6-1[8:1],6/2-5-3-7[8:3],{8}1,1h[8:1],,8>1-5>4[4:1],
,3,3,3,2-6[8:1],5-8[8:1],2,5,
{4}1bw5[4:1],{8},,,,7/3,4/8>1-6-2-5>4[16:9],
,,,,,,,,{4}4/6h[2:1],
7,4h[4:1],5h[4:1],
2pp5[2:1],8,7,6,
6/4h[2:1],2,5h[4:1],6h[4:1],
7qq4[2:1],1,2,3,
5/6h[4:1],5h[4:1],4h[4:1],3h[4:1],
4h[4:1],5h[4:1],6h[4:1],7V15[8:1]*-1v3[8:1],
,8V26[8:1]*-2v4[8:1],,7V15[8:1],
3bv1-7[16:5],,,C,
4/6h[4:1],5,{16}3/5,,,5,{8}4,4,
{4}5/3h[4:1],4,{8}E4,B5,B1,E8,
{4}4/6h[4:1],5,{16}5/3,,,5,{8}4,4,
{4}4/6h[4:1],5,{8}B2/A2,B7/A7,{4}E5/D5,
5/3h[4:1],4,{16}5/3,,,4,{8}5,5,
{4}4/6h[4:1],5,8,{8}8<5[8:1]*>3[8:1],8,
,,1<6[8:1]*>4[8:1],1,,,8>3qq4[2:1]*<5pp4[2:1],8,
,,,,,,{4}C,
2-5-3-8[8:3],2,{2}6h[4:1],
{4}6<1[8:1],6,6>3[8:1],6,
7-4-6-1[8:3],7,{2}3h[4:1],
{4}3qq3[4:1],3pp3[4:1],,7,
{8}6-8[8:1],6,5,5,1-5[8:1],1,4,4,
3-1[8:1],3,4,4,8-4[8:1],8,5,5,
7b<4b[8:1],8p3[8:1],7,8,1bq6b[8:1],2>5[8:1],1,2,
{4}Ch[4:1],B2/B1/A2/B3,A7/B8/B7/B6,A8/B8/A2/B2/B5/A5/Cf,
6x-1[8:1],6/2-5[8:1],{8}7/2,7h[8:1],5,3V14[8:1],
,8,8-4[8:1],7,8/1-5[8:1],2,1/8,7,
3-1v8-6[8:3],6,{4}3,{8}5,5-2-8-4[8:3],5,3h[8:3],
,,,,{4}4-8[8:1]/3-6[8:1],4b/3b,
1x<6[8:1],1/5q2[8:1],{8}5/3,3h[8:1],,8h[4:1],
,2,8/1-5[8:1],2,1/7-3[8:1],6,7/1,2,
4-6[8:1],3-7[8:1],4,3,8-4>5[2:1],2,8,1,
,,{4}B1/B2/B3/A2,A7/B8/B7/B6,D5f/A5/D6/A4/D4,
2-7[8:1],2/5-8[8:1],{8}5/3,3h[8:1],,8h[4:1],
,2,3/5-1[8:1],6,5/3-7[8:1],2,3/4,5,
{4}1>2V48<7[4:1],1/5,{8}5,5-2-4-8[8:3],5,3h[8:3],
,,,,{4}5>8[8:1]/8-5[8:1],8b/5b,
6-2>4[4:1],4-8<6[4:1],{8}1,1h[8:1],,2h[4:1],
,8,1/7-3[8:1],6,7/8-4[8:1],1,8/7,6,
{4}3s7[8:3],,,5v8[8:1]*v2[8:1],
5b,1v7[8:1]*v4[8:1],1b,6/2,
4bqq4b[4:1]`8bqq8[4:1],{8},,,,7/3,7v6-4[4:1]/3v2-8[4:1],
,,,,,,{4}B7/C/B3/B6/B2,
5v4[8:1],5,{2}3-1v8-6[8:3],
{4},5,5,5,
1v8[8:1],1,{2}7-5v4-2[8:3],
{4},1,1,1,
5v4[8:1],5,{2}2-4v5-7[8:3],
{4},8,8,8,
7-4[8:1]/5-2[8:1],7/5,{2}1-3[8:1]*v7-5[4:1],
{8},4,4,4b,
E
