&title=Jump To It
&artist=Celeste Strawberry Jam/KAERRA
&first=-1
&des=Mint_
&des_5=Mint_
&lv_5=13+
&inote_5=(160){4},,,,{2}5h[2:1],
{8}3,4,5,6,
,B4,,D4,,8,7,6,
{4}4V62[2:1],7,{2}7h[4:1],
{4}5V38[2:1],2,{2}2h[4:1],
{4}6,{8}2-5[4:1],2,{4}2,8,
4,{8}7-4[4:1],7,{4}7,1,
{8}E8,E1,E2,E3,{4}E4,B5,
{2}D6,7h[2:1],
4h[2:1],{8}6,5,4,3,
,A8,,D8,,4,3,2,
{4}8V26[2:1],3,4,4,
1V74[2:1],6,5,5,
2,{8}6<1[4:1],6,{4}6,4,
8,{8}3>8[4:1],3,{4}3,5,
{8}B1,B2,E3,B3,{4}B4,B7,
{24}1x,2x,3x,8x,7x,6x,2x,3x,4x,7x,6x,5x,3x,4x,5x,7x,6x,5x,2x,3x,4x,8x,7x,6x,
{4}5bxw1b[12:1],5,{8}7-3[8:1],7,4,4>1[8:1],
,6/4<7[8:1],,4/2,,1/2,3,4/5,
{4}6-1[8:1],6/5,{8}4-8[8:1],3,{4}6/4,
2q6[8:1],2/8,{8}7<4[8:1],3,2,1,
{4}8/7x,{8}2-5[8:1],6,{4}2/6-1[8:1],6b,
2x,{8}7<4[8:1],3,{4}7/3>8[8:1],3b,
{8}7x,6,5,4,{4}3,8/4,
{2}2-5[8:1]/1-4[8:1],7-4[8:1]/8-5[8:1],
{4}2b-6b[8:1],2/8,{8}5,5,1,1-3[8:1],
7,1-7[8:1],5,1,,5/6,7,8/1,
{4}2-5[8:1],2/1,{8}8-4[8:1],7,{4}8/2,
7p3[8:1],7/1,{8}2>5[8:1],6,7,8,
{4}2x/1,{8}5/6,7,{4}8-3[8:1]/7-4[8:1],8b/7b,
5x,{8}1/2,3,{4}4<7[8:1]/3>8[8:1],4b/3b,
{8}2x,3,4,5,{4}6,1/5,
{8}B1,B2,B3,B4,B8,B7,B6,B5,
2bv5[8:1],1/3,{4}2,{8}7-4[8:1],6/8,{4}7,
{8}2>5[8:1],1/3,{4}2,{8}6-2[8:1],7/5,{4}6,
{8}1/2x,3,5/4,6,7/8,6,5/4,3,
2/4x,5,4/6,7,8/2,1,{16}1,2,3,4,
{8}7-4[8:1],6/8,{4}7,{8}1>4[8:1],8/2,{4}1,
{8}6v1[8:1],7/5,{4}6,{8}3-7[8:1],2/4,{4}3,
{8}8/7x,6,4/5,3,2/1,3,4/5,6,
7/5x,4,5/3,2,{16}1/7,2,3,4,7,6,5,4,
{8}2b-5[8:1],8,7,6,2-6[8:1],1,8,7,
2>5[8:1],1,8,7,6<1[8:1],5,4,3,
4/2x,1,2/5,3,6/4,7,6/3,5,
2/4x,1,8/6,5,2/4,1,{16}1,2,3,4,
{8}6-1[8:1],4,3,2,6-2[8:1],5,4,3,
6<1[8:1],5,4,3,2>5[8:1],1,8,7,
{4}6h[8:7]/4xh[8:1],5h[8:1],7h[8:1],8,
3h[4:3]/5xh[8:1],4h[8:1],2h[8:1],1<5[8:1],
4bw8b[8:1],4,{8}6-3[8:1],3-7[8:1],4,4>1[8:1],
,6/4<7[8:1],,4/2,,1/2,7/8,6/1,
{4}2-5[8:1]*-6[8:1],2,{8}3-1[8:1],1-5[8:1],{4}3,
7-3[8:1]*-4[8:1],7,{8}2>5[8:1],6,7,8,
{4}1/2x,{8}4/5V71[8:1],2,{4}1V75[8:1],3b,
8/7x,{8}5/4>8[8:1],7,{4}8>4[8:1],6b,
{8}1/7x,6,5,4,{4}3/1,8/4,
{2}6-4[8:1]/2-8[8:1],7>2[8:1]/3<6[8:1],
{4}3b/7b-3b[8:1],7/5-2[8:1],{8}5,7,1,1>4[8:1],
6,1-6[8:1],7,1,,8/7,4/5,1/2,
{4}8-4[8:1]*-6[8:1],8,{8}5-3[8:1],3-7[8:1],{4}5,
1-5[8:1]*-3[8:1],1,{8}8<5[8:1],4,3,2,
{4}1/8x,{8}3/4V28[8:1],7/8,{4}4/5-1[8:1],5b,
1x/2,{8}6/5<8[8:1],2/1,{4}5/4-2[8:1],4b,
{8}8/2x,3,4,5,{4}6/8,1/5,
{8}A1,A2,A3,A4,A8,A7,A6,A5,
3x,3,{16}1,2,,4,{8}3,{16}8,1,,6,{8}5,
7,7,{16}5,6,,8,{8}7,{16}4,5,,2,{8}1,
4,4/6,{16}7,8,,4,{8}3,{16}6,5,,1,{8}2,
5,5/3,{16}2,1,,5,{8}6,{16}8,7,,3,{8}4,
5/6x,3/4,{16}7,5,,6,{8}4,{16}5,3,,4,{8}2,
4/3,5/6,{16}3,1,,2,{8}8,{16}1,7,,8,{8}6,
3/4,4/5,{16}6,5,,7,{8}8,{16}1,2,,4,{8}3,
6/5,5/4,{16}3,4,,2,{8}1,{16}8,7,,5,{8}6,
4/3x,6/5,{16}1,8,,3,{8}4-6[8:1],{16}8,7,,3,{8}3,
2,3/4,{16}8,1,,6,{8}5-2[8:1],{16}1,2,,6,{8}6,
7,6/4,{16}2,1,,8,{8}7-2[8:1],{16}5,6,,3,{8}3,
4,3/5,{16}7,8,,1,{8}2-6[8:1],{16}4,3,,5,{8}5,
7x,6/4,{16}2,1,,4,{8}4>1[8:1],{16}6,6,,7,{8}7,
2,2/8,{16}6,5,,8,{8}8p4[8:1],{16}2,2,,3,{8}3,
5,4/5,{16}2,1,,4,{8}4v1[8:1],{16}6,6,,7,{8}7,
{24}8x,7x,6x,1x,2x,3x,7x,6x,5x,2x,3x,4x,6x,5x,4x,2x,3x,4x,7x,6x,5x,1x,2x,3x,
{8}4bx>7[4:3],,,5,,,{4}5,
{8}6<3[4:3],,,4,,,{4}4,
{8}4pp2[4:3],,,7,,,{4}8,
{8}8pp6[4:3],,,3,,,{4}4,
{8}2p7[4:3],,,4,,,{4}5,
{8}6q1[4:3],,,1,,,{4}2,
{8}2pp5[4:3],,,1,,,{4}8,
{8}6pp1[4:3],,,1,,,{4}2,
{2}3pp5[2:1],E8,
8qq6[2:1],E4,
4q2[2:1],E6,
6q4[2:1],E3,
2pp3[2:1],A6,
6qq5[2:1],A1,
{1}4h[1:1],
C,
E
