&title=四角運命
&artist=三月のパンタシア
&first=0.03
&des=路过的朋友A
&lv_5=13+
&inote_5=(156)
{1},
{1}6>3[16:10]/4h[4:3],
{16}2pp1[16:10],,,,,,,5^8[16:3],,,,,,,,,
{16}2<7[8:5]/6h[8:6],,,,,,,,,,,,,,,,
{16}6,,,,6,,,,6,4,8h[8:1],,{32}E5,E6,E7,E8,E1,E2,E3,E4,
{16}6,,6,5>2[8:1],7,7h[16:5],,5,,,1,,4/2,,5/3,,
{16}6h[8:1],,4,5,4,5,3h[8:1],,4,,1,,82,,,,
{16}3,,3,4-7[8:1],2,2h[16:5],,4,,,8,,7/2,,6/3,,
{16}5/4,,5/4,,7x/2x,,6xz2[8:2]x/3xs7[8:2],,1b/8b,,,,,,,,
{16}4/3h[16:4],,,,5,,,3,4,,2,,1,,1-4[8:1],,
{16},,4,,5,,6V47[16:3]/4,,,,3,,2-4[8:1],,,,
{16}6,,6-1[8:1],,,,4,,4-1[8:1],,,7,4,,6pp2[8:3],,
{16},,1,,2,,3,,3h[8:1],,4h[8:1],,5xh,,,,
{16}6h[8:2]/5,,,,3,,,,7h[16:3]/5,,,4,7,,7<4[8:2],,
{16},,4,,3,,2V83[16:3],,,,5,,6-1[8:1],,,,
{16}3,,3-6[8:1],,,,8,,8-5[8:1],,,4,8,,3>6[8:2],,
{16},,6,,5,,5h[8:2],,,,3,4,3,,3,4,
{16}2,5,3,6-2[12:1],4,,,4h[16:3],,,1,,8/3,,7/4,,
{16}6h[8:1]/5,,7,8,1,2,3,4-7[8:1]/5-2[8:1],,,,,,,,,
{16}7,4,6,3-7[12:1],5,,,5h[16:3],,,8,,17,,26,6/2-6[8:2],
{16},,,,,,,,E7,,C,,E3,,,,
{16}4h[8:2]/3,,,,2,,,,4/3h[4:1],,,,5,,6h[8:2],,
{16},,5,,4,,3-1[8:1],,,,6,5,4-7[8:1],,,,
{16}3,,3-7[8:1],,,,6,,6-1[8:1],,,,2,,2pp5[8:3],,
{16},,1,,8,,7,,6,,6,5,7,,7,,
{16}5/3h[8:2],,,,7,,,,4/6h[8:2],,,,2,,2h[8:2],,
{16},,4,,5,,6>4[8:1],,,,3,2,1<6[8:1],,,,
{16}2,,2p6[8:1],,,,3,,3v6[8:1],,,,4,,4-8[8:1],,
{16},,6,,7,,7,8,6/1>7[8:2],,2,,3/1b,,,,
{16}3,,,3,,,2V46[8:9]/6V82[8:9],,,,,,,,,,
{16},,,,,,,,,,,,,,,,
{16}5/2,,,5/2,,,7V14[8:9]/3V58[8:9],,,,,,,,,,
{16},,,,,,,,,,,,,,,,
{16}5/1,,,5/1,,,7v1[8:8]/3v5[8:8],,,,,,,,,,
{16},,,,,,,,,,,,,,,,
{16}2h[8:2]/4,,,,5h[8:2],,,,3-5[8:1],,3,,6-8[8:1],,6,,
{16}4bpp1[8:4],,,,,,,,,,8xh,8xh,8xh,,,,
{16}7/2,,7h[8:6]/2h[8:6],,,,,,,,,,,,,,
{16}8-4[8:1],,,,3>8[8:1]/8<5[8:1],,,,3/8V24[16:3],,,,6-1[8:1],,7,,
{16}6,,5,,4,,3/8,,2,1,2,,3/4,,2,,
{16}5^8[8:1],,3^8[8:1],,5,,3,,,,6,,7/5,,3h[8:1],,
{16}8x,7,6,,2-6[8:1]*-5[8:1],,5,,2b,,,,7/4,,3,4,
{16}2-6[8:1],,,,2>5[8:1]/5<8[8:1],,,,5V38[16:3]/2,,,,8,,7,,
{16}6,,2,,6-3[8:1]/3<6[8:1],,27,,,,,,8x/3x,,1bh[8:2]/2bh[8:2],,
{16},,,,7x/4x,,1bh[4:1]/2bh[4:1],,,,,,6x/5x,,1b<4[8:3]/2b,,
{16},,3,,3,,3,,3,,3,4,2,,6,5,
{16}7-4[8:1]/4-8[8:1],,,,7V51[16:3]/4,,,,78,,,,2,,8,,
{16}2-6[8:1],,7-3[8:1],,2,,7,,,,4,,6/5,,7v4[8:1],,
{16}3-1[8:1],,7-5[8:1],,3,,7,,,,2,,3/6,,54,,
{16}3,4,2,,7-3[8:1],,8,8,7b,,1,1,4,,2,,
{16}1-5[8:1]/3-6[8:1],,,,1V74[16:3]/3,,,,3-8[8:1]/1,,,,3,,6,,
{16}7x-3[8:1],,1-4[8:1],,7,,1,,,,5,4,5,,6q4[8:2]/3p5[8:2],,
{16},,,,,,,,3,,3,,4/2,,6,5,
{16}7,,3,4,,2,1,,7,8,7,8,{32}E7,E6,E5,E4,E3,E2,E1,E8,
{16}3x,,8,1,7h[16:3],,,4,,,6/5,,7,,6/4,,
{16}2h[8:1],,4,2,5,3,6,4h[16:3],,,7,,1/2,,{24}8/3,7,6,
{16}5h[16:3],,,,2h[8:1]/6,,,4/1,,,3,4-8[8:1],2/5,,,4/3,
{16},,1,,1,7,1,7,2,6,2,6,3,5,3,5,
{16}2,,3/4,,2h[8:1],,4-8[8:1],4,,,3,,2h[8:1],,4-8[8:1],4,
{16},,3,,2h[8:1],,4v7[8:1],4,,,3,,3,5,4,6,
{16},,7,7-3[8:1],,4,,3,,,1h[8:1],,5,,6-2[8:1],6,
{16},,1,,1h[8:1],,5-1-6[8:2],5,,2,2,,3,,4,,
{16},,7/5,,6/8,,1/7,,2,3,4,5,1,2,3,4,
{16}2,3,2,3,1,4,1,4,8,7,6,5,7,6,5,4,
{16}2,,5/3,,7,,4,5,6/2,,8,,7/1,,6,6h[16:3],
{16},,2,,1/3,,4,4h[16:3],,,6,5,6,5,6,5,
{16}7V16[16:3],,,,2,,,,3V52[16:3],,,,6,,,,
{16}7V51[16:3],,,,7/3,,,,2,8,2,,3,,3,,
{16}5/2V48[16:3],,,,6,,,,7V51[16:3],,,,2,,,,
{16}3-6[8:1]*-8[8:1],,,,3,,,,1/5,,7,8,7,,6,,
{16}6,,4<7[8:1]b,,3,,2h[8:2],,,,6>3[8:1],,7,,8h[8:2],,1
{16},,2,,1,,8,,7,,4,5,6/3,,1s5[8:2]/8z4[8:2],,
{16},,,,,,,,6,,6,,7/4,,3,4,
{16}2,,6,5,,7,8,,2<4[8:2],1,2,1,2b,,,,
{16}8h[8:1],,,8h[8:1],,,7pp4[8:9]/1<5[8:9],,,,,,,,,,
{16},,,,,,,,,,,,,,,,
{16}6h[8:1]/4h[8:1],,,6h[8:1]/4h[8:1],,,7pp6[8:9]/3pp2[8:9],,,,,,,,,,
{16},,,,,,,,,,,,,,,,
{16}1h[8:1]/5h[8:1],,,1h[8:1]/5h[8:1],,,6pp3[8:9]/2>8[8:9],,,,,,,,,,
{16},,,,,,,,,,,,,,,,
{16}4h[8:2],,,,6h[8:2],,,,5-3[8:1],,5,,8-6[8:1],,8,,
{16}2bpp6[8:4],,,,,,,,,,7xh,7xh,7xh,,,,
{16}8,,Ch[8:7]/B8/B6/B4/B2,,,,,,,,,,,,,,
{16}5h[8:2],,,,,,6h[8:3]/4h[8:3],,,,,,,,,,
{16}3h[8:2]/5h[8:3],,,,,,,,,,2h[8:3]/5,,,,,,
{16}4h[8:3],,,,,,3h[8:4],,6h[8:3],,,,,,,,
{16}7p3[8:3]/3p7[8:3],,,,,,,,,,,,Ch[8:9],,,,
{16}5,,,,5,,,,5,,,,5,,,,
{16}6,,6,,6/5,,6/5,,5/4,,3,4,2-6[8:1]/5-1[8:1],,4b/3b,,
{16},,,,8v7[8:1]/4v3[8:1],,6b/5b,,,,,,2/6,,8bh[8:2]/4b,,
{16},,3,2,1,8,7,6,Ch[8:4],,,,,,,,
{24}7x,6x,5x,,,,4x-1[8:1]/7x-4[8:1],3x/6x,5x/2x,,,,4x/7x,,,,,,2,,,5,,,
{16}4/6V48[8:2],,7,2,6,,1,,,,6,5,7,,8-6[8:1],,
{16}1-5[8:1],,8-4[8:1],,1,,8,,,,3,4,2,,8/1,,
{16}7/3,,4,5,6v7[8:1]/2v3[8:1],,1/8,,6x/2x,,,,6/4,,7/3,,
{24}2x,1x,8x,,,,2x-6[8:1]/7x-4[8:1],1x/6x,8x/5x,,,,2x/7x,,,,,,5,,,3/4,,,
{16}2-5-8[8:2],,5-1[8:1]/1,,2,,,,,,7,8,7,,2<4[8:5]/4,,
{16},,3,,3,,3,,3,,3,,3,,3,4,
{16}2,,6,5/7,,3,2/4,,2,1,2,1,{32}2x,3,4,5,6,7,8,1,
{16}5/2,,3,4-1[8:1],3,4,,2h[16:3],,,8,,7/3,,6/4,,
{16}5h[8:1],,2,4,3,5,4,6h[16:3],,,5,,5-8[8:1]/7,,3,,
{16}2/5,,,,1-5[8:1],,7,7,1,,6,6,5,,,4/2,
{16},,A3,A6,E4,E6,B4,B5,,,3/7,,1bw5[8:5],,,,
{16},,,,,,,,,,,,,,,,,
