&title=細氷
&artist=かねこちはる
&first=-0.05
&des=猫团子
&clock_count=4
&lv_5=14
&des_5=
&inote_5=(180)
{1},
{2}2h[4:3],{4},{2}4h[2:1],{8}3,3h[8:3],{4},{8}5,6,7h[8:3],{4},{16}3,4,{4}5,{2}8h[2:1]/5,{8}7,{4}7h[4:1],{16}6,,,5,,,{16}4,5,6,7,8,1,2,3,4,5,6,7,8,1,2,3,{1}4/8h[4:3],
{16}5,,,6,{8}5,{4}7h[4:1],{8}1,2,3,3-8[8:1],8-4[8:1],3,{4}6,
{16}7,5,6,2,4,3,8,,,5,{8}6,{4}7h[4:1]/4,{8}3,2,1,1-5[8:1],5-2[8:1],1,{4}7,
{8}6,7,8,{4}1b/3b,
{16}2,3,4,5,1,2,3,4,8,1,2,3,{8}7,7,{16}7,5,{4}6h[4:1],{16}4,5,6,7,8,1,
{8}26,6,6,37,3,3,48,8,8,15,5,5,{16}5/7,,,24,,,{8}18,
{2}8b/1bpp4[2:1],7h[2:1],{16}5,,,5,,,5,,74,,6,,,6,,,
{2}5pp1[2:1]/2,3h[2:1],{16}8,,,8,,,8,,72,,1,,,1,,,{4}6b/2b,
{16}7,6,5,4,8,7,6,5,1,8,7,6,{8}2,2,{16}2,4,{4}3h[4:1],{16}5,4,3,2,1,8,
{8}73,3,3,62,6,6,51,1,1,84,4,4,{16}4/2,,,75,,,{8}81,
{4}18,{8}7,{24}5,6,5,{16}6h[16:3],,,3h[16:3],,,4,,2h[16:3]/5,,,6h[16:3],,,5,,{4}8b^5[8:1],{8}38,
{16}2,3,4h[16:3],,,8h[16:3],,,{8}5,{16}6h[16:3],,,2h[16:3],,,4,,3h[16:3],,,7h[16:3],,,5,,6,5,4,3,2,1,8,7,{4}2b/6b,{8}2,{24}4,3,4,{16}3h[16:3],,,6h[16:3],,,5,,7h[16:3]/4,,,3h[16:3],,,4,,{4}1b^4[8:1],{8}61,{16}7,6,5h[16:3],,,1h[16:3],,,{8}4,{16}3h[16:3],,,7h[16:3],,,5,,6h[16:3],,,2h[16:3],,,4,,3,4,5,6,7,8,1,2,3b/7b,,,6h[16:3],,,2,3,4,,,4h[16:3]/7,,,6,,6b^1[8:1],,,2,,,3,,3b-5[8:1],,,8,,,8,7,6h[16:3],,,4,6,,5,,5/8h[16:3],,,3h[16:3],,,6,4,5h[16:3],,,2h[16:3],,,7,,1b/7b,,2,8,3,7,4,6,
{8}5b,5,7,{16}7,5,8h[16:3],,4,,4,,37,,6b,,6,5,7,,1,2,3,,35,,2,,28,,7,8,7,8,7,8,7,8,{32}7,6,5,4,3,2,1,8,7,6,5,4,3,2,1,8,{16}7/3h[16:3],,,6h[16:3],,,4,,{2}4-8[8:1]/5-1[8:1],
{8}36,2,{16}2,5,3,4,,4h[16:3],3,,2,,2,4,{4}3q8[8:1],{8}36,7^4[8:1],,,1,2,35,6,{16}7,4,6,5,,5h[16:3],6,,7,,7,8,{4}6^1[8:1],{8}36,2p5[8:1],{4},{8}6,7,84,3,{16}2,5,3,4,,4h[16:3],{8}3,2,2,
{2}2-6[8:1]/5h[4:1],{4}7^4[8:1],{8}37,2,1,1,5,5,{16}2,6,2,6,3,7,3,7,{4}4h[4:1],{8}8,{16}7,5,,5,6h[8:1],,4,3,2,1,
{2}5bpp1[4:3]/8b,2,{16}3,,,3,,,3,,48,,7,,,,7,,{4}7qq4[4:3]/5,{8},3,{2}3,{16}2,,,2,,,2,,15,,6,,,,6,,{8}26,3,5,4,{16}37,,,6,,,6,,{8}15,2,4,3,3-8[8:1],8-4[8:1],3,6,6h[8:3],{4},{16}2,3,4h[16:3],,,8h[16:3],,,5,,
{12}7,6,5,3,2,1,7,6,5,3,2,1,{1}4b/8bpp4[2:3],,6pp2[2:3],,
{8}3,3,4,2,{16}1^4[8:3],,,8,,,{4}7,{8}6,5,7h[4:1],,3,2,1,1/5h[8:3],{4},
{16}2,3,4h[16:3],,,8h[16:3],,,5,,
{12}7,6,5,8,7,6,1,8,7,2,1,8,{1}7bpp2[2:3]/3bpp6[2:3],,{4},
{8}4b/8b,7,{16}7,5,6,4,8,,5-8[8:1],7,,,{8}25,1b,1,{16}7,8,6,1,5,,2-6[8:1],4,,,{8}28,7b,7,5,6,{16}2,,4,3,,6,5,7,
{24}4,3,2,1,8,7,4,3,2,1,8,7,{16}62,,3,4,,1h[16:3]/5,,,
{8}7b^4[8:1],,78,{16}1,2,{8}3h[8:1],6,{16}6,5,,5,{8}7b^4[8:1],,78,{16}1,2,{8}3h[8:1],6,{16}6,5,,5,7b,,7,8,6,,6,,15,,2,4,3,,15,,2b/4b,,,7b/5b,,,1b/8b,,1b/8b,2,3,4,{32}7,6,5,4,3,2,1,8,{1}7b/3b,
{8}4b/6b,7,{16}2,4,3,5,1,,4^1[8:1],2,,,48,7,{4}6-4[8:1],{8}26,3,3,
{16}6,5,,7,,8,{4}6^1[8:1],{8}26,{16}2,3,48,,,57,,,24,,18,,6,5,,7,8,6,1h[8:1],,5,2h[8:1],,6,3,,4b/8b,,6,5,,7,8,6,1h[8:1],,5,2h[8:1],,6,3,4,2b,5,1,6b,5,7,3,4,2b,7,8,6,2b,1,2b,1,
{32}2b,3,4,5,6,7,8,1,2,3,4,5,6,7,8,1,2/7h[64:1],6h[64:1],5h[64:1],4h[64:1],3h[64:1],2h[64:1],1h[64:1],8h[64:1],7h[64:1],6h[64:1],5h[64:1],4h[64:1],3h[64:1],2h[64:1],1h[64:1],8h[64:1],{4}7b/3b,{1},
{16}1b/8b,,,1b/8b,,,{4}1b^4[8:1]/8b,{8}7,6,6,7-4[8:1],4-8[8:1],7,{4}2b,{16}3,4,5,6,7,8,1b/5b,,,1b/5b,,,{4}1b/5b^8[8:1],{8}2,3,3,2-8[8:1],8-4[8:1],2,6,,7,6,5,{4}2b/4b,
{16}1,2,3,4,8,1,2,3,7,8,1,2,{8}6,6,{16}6,5,{4}7h[4:1],{16}4,5,6,7,8,1,{8}26,6,6,37,3,3,25,5,5,47,4,4,56,{16}7,8,{8}6,6,{16}2,5,2,5,2,5,3,4,3,4,3,4,2,1,2,1,2,1,{32}2,3,4,5,8,7,6,5,1,2,3,4,7b,6,5,4,{16}3,{32}1b,2,3,4,{16}5,{8}8b,{48}8b,17,26,35,{24}4,{8},{2},
{8}3h[8:3],,,5,6,7,,4,5,6,3/7h[8:3],{4},{16}2,3,{4}4,{2}8h[2:1]/5,{8}7,{4}7h[4:1],{16}6,,,6,,,1b/5b,
