&title=ガチ恋ラビリンス
&artist=森羅万象
&first=0
&lv_5=13
&des_5=ChinRa Bansho
&inote_5=
(213){4},{8},,,,,,,,,6/5qq2[1:1],
,6,,6,
,6,,7,,7,,8b,
,8b,,3/4pp7[1:1],,3,,3,
,3,,2,,2,,1,
,1,,1h[8:1]/7h[8:1],,4h[8:1]/6h[8:1],,2h[8:1]/8h[8:1],
,3h[8:1]/5h[8:1],,7h[8:1]/4h[8:1],,2h[8:1]/5h[8:1],,1/8<1b[4:5],
,,,,,,,,,,,,,7h[4:1],
,5h[4:1],
,3h[4:1],,1h[4:1],,7,,2-4[8:1],
{4}2,{8}8-6[8:1],8,,1-3[8:1],{4}1,
{8}7-5[8:1],7,,8-4[8:1],,8x,,6-8[8:1],
{4}6,{8}4-2[8:1],4,,5-7[8:1],{4}5,
{8}3-1[8:1],3,,4-8[8:1],,4x,,2>4[8:1],
{4}2,{8}8<6[8:1],8,,1>3[8:1],{4}1,
{8}7<5[8:1],7,,8w4[8:1],,8x,,7,
7-4[8:1],8,{4}7,{8}2-5[8:1],1,{4}2,
{8}8qq4b[8:3],1,{4}8,{8},,,,3,
3h[4:1],,6,{4}6h[4:1],{8}2-4[8:1],2,
,1-5[8:1],{4}1,{8}3,3,,6,
6,2-4[8:1],{4}2,{8}5-7[8:1],5,,,1,
2,3,5/4-2[8:1]*-8[8:1],,,,,5/7,
5/7,,2/4,{4}2/4,{8}6/8,6/8-4[8:1],
,7-5[8:1],{4}7,{8}1-3[8:1],1,,E7,
E5,E6,{4}E4,5<8<5b[2:1],1,
2,{8}3,3-1[8:1]*-7[8:1],,,,,4/6,
4h[8:1]/6h[8:1],,3/5,{4}3h[8:1]/5h[8:1],{8}1/7-5[8:1],1/7,
,1>4-8[8:3],{4}1,E6,E7,
{8}1/7,1h[8:1]/7h[8:1],,2/8,{4}2h[8:1]/8h[8:1],{8}4/6-8[8:1],6/4,
,4-2<1-5[8:3],{4}4,E8,E7,
{8},7,8,6,1,5,2,4V68[4:1],
4,3,{4}3,{8}2,2,1,3-8[8:1],
3,6,{4}6,{2}5qq5pp5[4:3],
{8},1h[8:1],,2h[8:1],,3,3,4x>8V24[2:1],
,E6,,A5,,E5,,6h[2:1],
,,,4h[2:1],,E8,E7,E6,
,7h[4:1],,1h[4:1],,5h[4:1],,3h[2:1],
,B5,,B7,,6,6,2,
2,8,8,1-5b[4:1],,,,,,3h[4:1],
,4h[4:1],,2,2,5h[4:1],
,1h[4:1],,6,6,8,8,7-4[8:1],
{4}7,{8}2-5[8:1],2,,8-4[8:1],{4}8,
{8}1V35[8:3]*V75[8:3],1,,,,,,3-8[8:1],
{4}3,{8}6-1[8:1],6,,4-8[8:1],{4}4,
{8}5,5,,6-1-5-7-4b[1:1],,4,{4}4h[8:3],
{8},,,2,,3,{4}3V15[8:3],
{8},,,,2/8,2/8,,3-5[8:1],
{4}3h[8:1],{8}2-6b[8:1],2h[8:1],,8q4[8:1],{4}8h[8:1],
{8}7-3b[8:1],7h[8:1],,5-1[8:1],{4}5h[8:1],{8}7<4b[8:1],7h[8:1],
,2-5[8:1],{4}2h[8:1],{8}8qq6b[8:1],8h[8:1],,1V35[4:1],
,1/7,,8,{4}8w4[8:1],8b,
{8},,1/2,8/3,{4}7/4,{8}3/5,2,
1,8,{4}7h[4:1],{8},1w5[8:1],,Cf,
,,7/8,1/6,{4}2/5,{8}4/6,7,
8,1,{4}2-5-3[4:1],{8}7,7,,6-4b[8:1],
{4}6h[8:1],{8}7-3[8:1],7h[8:1],,1p5b[8:1],{4}1h[8:1],
{8}2-6[8:1],2h[8:1],,4-8b[8:1],{4}4h[8:1],{8}2>5[8:1],2h[8:1],
,7-4b[8:1],{4}7h[8:1],{8}1pp3[8:1],1h[8:1],,8-4[8:1],
,8/2-5[8:1],,2/1-4[8:1]*-6[8:1],,1x,,7V51[4:1],
,4,,3V15[4:1],,8,,6V84[4:1],
,1,,2V48[4:1],,5,,6h[8:1],
,5h[8:1]/7h[8:1],,4/8<5[8:1],,1>4[8:1],{4}1,
{8}8,8-3>1[4:1]*-5<7[4:1],,8,,,,2h[8:1]/6h[8:1],
,3h[8:1]/7h[8:1],,8/4,{4}8/4qq1[2:1],8/4,
{8}8,7,6,5-7[8:1]*-3[8:1],,A5f,,2h[4:1]/8h[4:1],
,,{4}7h[4:1]/1>3-7[4:1],{8},6,,5,
5pp1[2:1],4,{4}5,{8},,,3h[8:1],
,2h[8:1]/4h[8:1],,1,1,6,{4}6pp1b[2:1],
{8}A2,A3,A4,A5,,,,,6,
5,7,3,4,2,6,5,
8,3,{4}3h[2:1],B8/E8,E7/B6,
{8}2,4,3,7,5,6h[4:1],,1>4[8:1],
,8,{4}8h[2:1],{8}E4,E3,{4}E2,
6h[4:1],{8}4,7,7h[8:1],3,3h[8:1],5,
5h[8:1],2,2h[8:1],8,8h[8:1],4,4-2<8-3b[2:1],7h[8:1],
,7h[8:1],,6h[8:1],,6h[8:1],,5-8[8:1],
,4/5>2[8:1],,5/6,,7x,,,3/5,
2,1,7,6,5,3,2pp4[4:1],
,8,{4}8h[2:1],B4/E4,E3/B2,
{8}4/6,7,8,2,3,4,6,7qq5[4:1],
,1,{4}1h[2:1],E6/B5,E7/B7,
{8}3,4,3,6,{4}6h[4:1],{8}2,2-4[8:1],
,8-6[8:1],,1w5[8:1],,,,7h[4:1]/8-4[8:1],
,8x,,2h[4:1]/1-5[8:1],,1x,,6-2[8:1]/4-8[8:1],
,4x/6x,,A1f/E2/B1,,A7f/B7/E8,,2,
4,3,{4}5-1[8:1],{8}2h[4:1],,,7/B3/B4,
7,2/B5/B6,2,8-3[8:1]*-5[8:1],,,,7/4,
3,1-5[8:1]/2-5[8:1],,1/2,,8-4[8:1]/7-4[8:1],,8/7,
,3,2,4/6,7,3/5,2,6/8,
{4}6h[8:1]/8h[8:1],{8}3/1,3h[8:1]/1h[8:1],,4/5,{4}4/5h[8:9],
{8}E3,E2,E1,E8,E7,E6,E5,4x>5b[4:3],
,,,,,,,7qq4[1:1],
,,,,,,,3qq8[1:1],
,,,,,,,6qq2[1:1],
,,,,,,,4qq4[8:5]*pp4[8:5],
,,,,,,,6h[2:1],
,,,5h[2:1],,,,4h[2:1],
,,,3h[2:1],,,,7-5-8-4[1:1],
,,,1h[4:1],,,,2h[4:1],
,,,3h[4:1],,,,5x/6x,
{4}6x/5xh[8:3],{8}A7,A8,,3x/4x,{4}3x/4xh[8:3],
{8}A2,A1,,7/5,{4}7/5h[8:3],{8}E8,C,
,2/4,{4}2/4h[8:3],{8}E2,C,,7<5[8:1],
,1>3[8:1],,8-4[8:1],,2,,6bh[4:1]/5bh[4:1],
,,,3bh[4:1]/4bh[4:1],,,,1b/8b<6>3>1[2:1],
,,,,,,,D3h[4:1]/8-4[8:1],
,,,D7h[4:1]/1-5[8:1],,,,3xqq5[2:1]/6xpp4[2:1],
,,,,,,,2-4[8:1],
1,2,7-5b[8:1],8,7,2>4[8:1],1,2,
7<5b[8:1],8,7,2-5[8:1],1,2,7-4b[8:1],8,
7,2-6b[8:1],1,2,7-3b[8:1],8,7,1-3<5[4:1],
,1/7,,8,{4}8w4[8:1],8b,
{8},,2/8,3/7,{4}4/6,{8}2/5,3,
7/4,6,{4}5/2h[4:1],{8},5w1[8:1],,A5f,
,,3/5,2/6,{4}1/7,{8}3/8,2,
1/6,7,{4}8/3V52[4:1],{8}7,7,,6-8b[8:1],
5,6,3-1b[8:1],4,3,6<8b[8:1],5,6,
3>1b[8:1],4,3,6-1[8:1],5,6,3-8[8:1],4,
3,6-2[8:1],5,6,3-7[8:1],4,3,6-4[8:1],
,6/1-5[8:1],,1/8-3[8:1]*-5[8:1],,8x,,7<5-1[4:1],
,4,,3>1-5[4:1],,8,,6<8-4[4:1],
,1,,2>4-8[4:1],,5,,6h[8:1],
,5h[8:1]/7h[8:1],,4/8<5[8:1],,1>4[8:1],{4}1,
{8}8,8v3-1[4:1]*v5-7[4:1],,8,,,,2h[8:1]/6h[8:1],
,3h[8:1]/7h[8:1],,8/4,{4}1/5qq1[2:1],1/5,
{8}8,7,6,5-2[8:1]*-8[8:1],,A5f,,3h[8:1]/7h[8:1],
,2h[8:1]/6h[8:1],,1/5,{4}8/4pp8[2:1],8/4,
{8}1,2,3,4w8b[8:1],,A4f,
E
