&title=Flower Dance
&artist=DJ Okawari
&first=0
&des=Noel
&lv_5=12+
&inote_5=(100){1},
{16}7h[8:1]/5h[8:1],,,,,6,4,5,3h[4:1],,,,,,,,6h[16:3]/5h[16:3],,,,5h[16:3]/4h[16:3],,,,4q7[4:1]/3,,,,A1/D2/A2,,,,1>4[8:1],,,,A7/A6/D7,,,,6,,
{24}5,6,4,
{16}5,,4-8[16:14],,35,,A1,,A7,,A2,,A6,,A3,,A5,,A4,,3hx[16:5],,,,,E5,B5,B6,E7h[4:1],,,,4p8[8:1],,,,5,,6,,7,,8,,3,1,2,8,1,7,8,6,5,7,4,6,5,7,4,6,3,5,2,4,3,5,2,4,3,2,1,8,7,6,5,4,3,2,1,8,7,6,5h[16:1],,3b-1[8:1],,2,,34,,5,,7-5[8:1]/8,,6,,78,,1,2,3-8[8:1]/4,,2,,34,,5,,7-4[8:1]/8,,6,,78,,1,2,3qq1[8:1],,3,,5pp7[8:1],,5,,4qq2[8:1],,4,,6pp8[8:1],,6,,5,,4,,3,,2,,1bx/8bx,,2bx/7bx,,3bx/6bx,,,,6-8[8:1]/5,,7,,56,,4,,2-4[8:1]/1,,3,,12,,8,7,6-1[8:1]/5,,7,,56,,4,,2-5[8:1]/1,,3,,12,,8,7,6-2[8:1],,6,,5-1[8:1],,5,,4-8[8:1],,4,,3-7[8:1],,3,,2hx[2:1],,,,8hx[4:1],,,,,,,,E1/E2/C,,,,6/5h[4:1],,6,,6,5,46,3,2h[8:1]/6,,6,,6/1h[8:1],,6,,6/C,,6,5,46,,6,5,46,,6,,3h[8:1]/6,,6,,6v7>1[16:3],,5,,4,,5,,4>1[8:1],,
{24}8,7,6,
{16}5pp8[8:7],,6,,5,,D2,,B1,,A2,,B2,,D3,,B4,,B3,,3/4h[4:1],,3,,3,4,53,6,7h[8:1]/3,,3,,3/8h[8:1],,3,,3/8x,,3/7x,,3/6x,,3/5x,,3,4,2,5,3,4,2,5,2,1,3,8,2,1,3,8,2,1,3,8,2,1,3,8,1h[16:1]/2h[16:1],,1h[16:1]/2h[16:1],,8h[16:1]/7h[16:1],,7h[16:1]/8h[16:1],,6,5,4,3,5x/4x,,,
{64},,2x,3x,
{16}4xh[2:1],,5h[8:1],,,5,6,7,
{64}8x,7x,6xh[64:14],,
{16},1,,
{64}1x,2x,3xh[64:6],,
{16},5,,5/B4,,3,4,35,,3,4,35,,6,,75,,8,,1h[4:1],,B2/B3,,8h[4:1],,B7/B6,,3,,
{24}2,1,2,
{16}1-4[8:1]*-6[8:1],,82,,1b,,,,6h[8:1],,5h[8:1],,4h[8:1],,3h[8:1],,2h[8:1],,1h[8:1],,8<5[8:1],,4,,3,,4,4,4>1[8:1],,3,,4/7<4[8:1],,8,,7b/3b,,2,,15,,8,,7,7,5,6,3,3,5,4,7,7,8x,7,2,2,1x,2,7,7,8x,6,2,2,1x,3,6,6,8x,5,3,3,1x,4,E7h[8:3],,E3h[4:1],,Ch[8:1],,,,1b/2bv5[8:1],,34,,12,,8,,6v1[8:1]/5,,74,,56,,4,3,1/2v5[8:1],,34,,12,,8,,6v1[8:1]/5,,74,,56,,4,4,3h[4:1],,D8/E8,,6h[4:1],,A4/B4,,1h[4:1],,E6/B5/B6,,8h[4:1],,E3/B2/B3,,1h[8:1],,5h[8:1],,2h[8:1],,6h[8:1],,3s7[8:1],,7x,,7x,,,,7v4[8:1]/8,,56,,78,,1,,3v8[8:1]/4,,25,,34,,5,6,7>2[8:1],,7,,5-1[8:1],,5,,4-8[8:1],,4,,C,,3,2,1>3[8:1],,1,,8-4[8:1],,8,,1-5[8:1],,1,,8-6[8:1],,8,,3x-1[8:1],,,,3b-6[8:1]/7b-2[8:1],,,,3b/7b,,,,,,,,6h[8:1],4h[8:1],,,5h[8:1],3h[8:1],,,6h[8:1],4h[8:1],,,7h[8:1],5h[8:1],,,2h[8:1],4h[8:1],,,3h[8:1],5h[8:1],,,4h[8:1],6h[8:1],,,3h[8:1],5h[8:1],,,1h[8:1],7h[8:1],,,2h[8:1],8h[8:1],,,1h[8:1],7h[8:1],,,2h[8:1],8h[8:1],,,3h[8:1],7h[8:1],,,2h[8:1],6h[8:1],,,1h[8:1],5h[8:1],,,E1/E5,,E3/E7,,6,5,4,3,6,5,4,3,6,5,4,3,6,5,4,3,6,5,3,4,5,6,3,4,5,6,3,4,5,6,3,4,6,5,4,3,6,5,4,3,6,5,4,3,6,5,4,3,2h[8:7]/7h[8:1],,,,7h[8:1],,,,7h[8:1],,,,7h[8:1],,,,7h[16:1]/1-4[8:1],,7h[16:1],,7h[16:1],,7h[16:1],,7h[16:1]/5-2[8:1],,7h[16:1],,7h[16:1],,7h[16:1],,6pp8[8:1],,8pp2[8:1],,2pp4[8:1],,4pp6[8:1],,3x,,3x,,3x,,3x,,3h[16:1]/7V15[8:1],,3h[16:1],,3h[16:1],,3h[16:1],,2h[16:1]/4V61[8:1],,2h[16:1],,2h[16:1],,2h[16:1],,3-8[8:1],,8-5[8:1],,5-2[8:1],,2-7[8:1],,6x,,6x,,6x,,6x,,6h[16:1]/7-2[8:1],,6h[16:1],,6h[16:1]/7,,6h[16:1],,6h[16:1]/1q5[8:1],,6h[16:1],,6h[16:1]/1,,6h[16:1],,65,,78,,1-6[8:1]/2,,3/4-7[8:1],,1x,,4x,,5x,,8x,,8>3[8:1]/5h[16:1],,6h[16:1],,7,7,8h[16:1],,4h[16:1]/1<6[8:1],,3h[16:1],,2,2,1h[16:1],,8b-4b[4:3],,A4,,A5,,A3,,A6/B6,,A2/B2,,A7/B7,,A1/B1,,A8f,
