&title=Marigold
&artist=M2U
&first=0.03
&des=killermatt
&lv_6=14
&inote_6=(160){1},
{8}2h/6h,3,4,3,5,4,6,5,73,6,5,6,4,5,3,4,
2h[4:2],1,8,7,6h[2:1],5,4,3p5b[8:5],
2pp4[4:2],,,,,,,,
1/8h[8:4],,B6/B5,,4h[4:2],,B2/B1,,
7>2[4:1],,3,,4V26b[4:1],,8,,
7-4-7[4:1],,78,1,2-5-2[4:1],,12,8,7<4b[8:1],,37,2,1h[4:2],E8,E7,E6,
(155)4<8[4:1],2,3,,5>1[4:1],7,6,,
4>5b[8:9],2,3,,(150),(110),(80),(55){16},{32},{64}E3,E2,
(40){4}E1,{64},
(160){8},,,
{32},18,27,36,{4}4b/5b-8[8:1],3,
{24}2>5[8:1],1,2,1,2,1,{4}2,
7-4[8:1],17,{16}2-6[8:1],,,5,25,,,,8-4[8:1],,,3,38,,,,
2b-5[8:1]/6b-1[8:1],,,,2b/6b,,,,
3/7<4[4:1],,,4,4>1b[4:1],,,,1<6[4:1],,,,5,,,,
4-1[8:1],,,,8h[4:1],,,,{24}7x-3[8:1],6,5,4,3,2,{16}17,,,,
{4}8-5[8:1]/2,28,4-1[8:1]/6,46,{16}78,,,35,3h[4:1]/5,,,,{24}4,5,6,7,8,1,2,3,4,5,6,7,
{32}8b/A2f,B2,C,B6,A6,,,,{4},
{2}7h[2:1],6h[2:1],5h[2:1],B3h[8:12],B4h[8:9],B5h[8:6],B6h[8:3],{24}1,8,1,8,1,8,1,8,1,8,1,8,{2}1,
4h[4:1]/2,5h[4:1]/3,6h[4:1]/4,7h[4:1]/5,6h[4:1]/4,5h[4:1]/3,{8}6,5,4,3,2h[8:2]/5h[8:3],,,,
{4}3-8[4:1],8qq6>3[4:2],7h[4:1],,8<5[4:1],1,{8}4,3,2,1,
7h[4:1]/8,,{24}1-4[8:1],2,3,5,6,7,1b/8-5b[8:1],,,,,,{4}8b,
1b-5[8:1]*-6[8:1],,{8}E8/B4,3,2,1,8-4[8:1]/7,,7,6,5-1[8:1]/3h[4:1],,,,
2>5[8:1]/8,,8,7,6<1[8:1]/4,,4,3,2-6b[8:1]/8,,,8,7-2[8:1]*-4[8:1],,7,,
8-4[8:1],,38,,1-5[8:1],5,61,7,
8-4[8:1]/4-2[8:1],,48,,1-5[8:1]/5-7[8:1],,51,,
2>4[8:1]/8-4[8:1],,2-7b[8:1]/8-5b[8:1],,2b/8b,,2b/6b,,
4bp6<3b[4:3]/5b,,,,E5/E6/B5f,,,,
{16}5,6,7,8,D5,D6,D7,D8,D1/5,D2/6,D3/7,D4/8,1,2,3,4,
1,2,3,4,D1,D2,D3,D4,D5/1,D6/2,D7/3,D8/4,5,6,7,8,
{8}1h[4:1]/5h[4:1],,,,27,,{16},4,3,,{8}2-6[8:1]/6-1[8:1],,,,27,,56,,
{16}4,3,2,1,E5,E4,E3,E2,E1/4,E8/3,E7/2,E6/1,8,7,6,5,
8,7,6,5,E1,E8,E7,E6,E5/8,E4/7,E3/6,E2/5,4,3,2,1,
4h[4:1]/8h[4:1],,,,,,{8}7,6-8[8:1]/5,,4,,1h[4:1]/5h[4:1],,,2,3-1[8:1]/4,,5,,
4h[4:1]/7h[4:1],,,25,2h[4:1]/5h[4:1],,,46,4h[4:1]/6h[4:1],,,35,3h[4:1]/5h[4:1],,,7b/8b,
7bh[4:1]/8bh[4:1],,,1b/2b,1bh[4:1]/2bh[4:1],,,4b/5b,
26,45,37,45,1b-3[8:1]/8b-6[8:1],,A8/D1f/A1/E1,,
{16}4b/5b,,2b>5b[8:1],1,3,4,2,,7b-4[8:1],8,6,5,7,,2b,2,1,1,3h[8:1],,7b,7,8,8,6h[8:1],,{32}2,1,8,7,6,5,4,3,{8}26,
{16}B3/B7,,1,1,1,1,18,,8,8,8,8,18,,2bh[8:2],,4,5,6,7,18,2,3,4,
5-1[8:1]/6,,28,,56,,8,,37,,4,4,4,4,4h[4:1],,E6,E5,E4,E3,E2,E1,E8,E7,
E6/1,,7,8,7,8,16,,2,1,2,1,3,8,18,,
2/7h[8:1],,5,6,5,6,45,,4,3,4,3,45,,,,
3,3,6,6,2,2,7,7,1-5[8:1],1,8,8,1b,,,,
{32}2pp1b[4:2]/6pp5b[4:2],B2/B6,Cf,,{8},,,,,,,
{24}3,4,3,5,2,5,1>5[8:1],6,1,7,8,7,{8}1,8h[4:1],,6,6h[4:1],,{16}7,5,8,4,5,1,4,2,8,4,7,5,{8}6b,45,1b,24,8b,4b/6b,3b/7b,,
28,6,5,3bh[4:1]/7bh[4:1],,,46,,71,3,4,6bh[4:1]/2bh[4:1],,,53,,
46,4,4,35,5,5,45,36,
8,7,6,5/1h,4/8h,3/7h,26,15,4h[4:3]/8h[4:3],,,,,,,,
1V35[4:2],,C,,5>1b[4:2],,C,,1<5[4:2],,7<3b[4:2],,,,,,
E8h[4:2],,6,,E2h[4:2],,3,,8<8[4:4],,4,,4V28V64[4:4],,,,4>4V28b[4:6],,,,,,,,8V64[4:2],,,,,,,,
E2h[4:1]/6,,,,B2h[4:1]/8,7,6,5,4/B3h[4:1],,,5,5-1[8:1]/E4h[4:1],,,,
E8h[4:1]/2,,,3,3/B7h[4:1],,,2,2/B6h[4:1],,,1,1>4b[8:1]/5<8b[8:1],,1-5[8:1]/5,,
1,,2-4[8:1],,2,7,7-5[8:1],7,7,,8-4[8:1],,8,,17,,
26,,{16}15,26,37,48,{8}1-6[8:1]/5-1[8:1],,1>6[4:1]/5,,1/7h[4:2],,,,{16}1,8,1,8,1,8,1,8,
2,3,4,5,E3,E4,E5,E6,E7/3,E8/4,E1/5,E2/6,7,8,1,2,37,6,5,4,E7,E6,E5,E4,E3/6,E2/5,E1/4,E8/3,2,1,8,7,
3qq5[4:1]/6pp4[4:1],,,,,,,,,,,,,3,6,,2-6[8:1]/7-3[8:1],,,,,,,,4h[4:1]/5h[4:1],,,,,,,,
3,2,1,8,E3,E2,E1,E8,E7/2,E6/1,E5/8,E4/7,6,5,4,3,26,7,8,1,E7,E8,E1,E2,E3/7,E4/8,E5/1,E6/2,3,4,5,6,
{8}7h[4:2]/3,,,5,5h[4:2],,,4,4h[4:2],,,2,2h[4:2],,,,
B5,4,,4,E6,3,,3,B5,2,,2,E6,1,,5,B1,8,,8,E2,7,,7,B1,6,,6,E2,5qq3[4:8]*pp7[4:8],,5,
