&title=Last Goodbye
&artist=Toby Fox
&first=0.000
&des=Bye
&wholebpm=180.000
&lv_6=13
&des_6=Bye
&inote_6=(180){16},{8}
,,,,,,B1h[4:7],,B2h[4:6],,B3h[4:5],,B4h[4:4],,B5h[4:3],,B6h[4:2],,B7h[4:1],,B8,,1x,,4q8[4:1],,2,,3,,4h[4:1]/7h[4:1],,,,6,5p1[4:1],,8h[8:7],,,,,2h[4:1],,,
{16}37,46,5qq1[2:1]*pp1[2:1],,,,
{8},,,,,,2x/8xp4[4:1],,,,3h[4:1],,4,,2h[4:1]/5,,4,,3,4q8[8:3],,1h[8:3],,,,,2h[4:1]/6h[4:1],,,,3,3,5,5,4p8[8:1]*q8[8:1],,4,,1xh[4:1]/7x,,4q8[4:1],,2,,3,,7h[4:1]/4h[4:1],,,,6,5p1[4:1],,8h[8:7],,,,,2h[4:1],,,
{16}37,46,
{8}5p1[8:1]*q1[8:1],,,,8<5[8:1]/2>5[8:1],,,,4xh[4:1]/6xh[4:1],,,,34,,57,,2>5[8:1]/1,,8,,7V51[4:1],4-2[8:1],,4,,,38,,6,5qq1b[8:3],,5h[8:3],,,,,6,5,4,3,7h[8:1]/2-5[8:1],,7h[8:1],,7h[8:1]/4-2[8:1],,7h[8:1],,1pp4[2:1]/7h[8:1],,7h[8:1],,7h[8:1],,7h[8:1],,3h[8:1]/7-4[8:1],,3h[8:1],,3/5-7[8:1],,4,4-2[8:1],,8-4[8:1],,1-5[8:1],,6,6,,7<5[8:1]/3h[8:1],,5>3[8:1],3,1h[4:1],,,,2>4[8:1]/6h[8:1],,4<6[8:1],6,8h[4:1],,,,7h[4:1],,5h[4:1],,3h[4:1],,1h[8:4],,4h[4:1],,,,5-8[8:1],,,,,D2,D3,D4,,D6,D5,D4,,D3,D4,D5,,D8,D7,D6,2>5[8:1],,4,,7h[8:1],5-1[8:1],,6-8[8:1],,2,2-4[8:1],,1-5[8:1],,,,3h[8:1],,4h[4:1],5,6,,28,,3,3h[8:3],4,5,6,,28,,3h[4:1],,4h[4:1],,5h[4:1],,6,,4-1[4:1],,,,5h[16:130],,,,1xh[16:122],,,,
(168){2},,,,,,,,,,,,,,
{32},,,,
{64},
{8}3,,4,,5h[16:113],,,
{1},,,,,,,
{16},,,,,,,,,
{32},
{64},
(180){8}7x<4[8:1],,5-1[8:1]/7,,2-5[8:1],,8,,7-5[8:1],5-8[8:1],,4h[16:4],
{16},,E8,B7,B6,,,,
{8}2>5[8:1],,2/4-8[8:1],,7-4[8:1],7,,1h[4:1],,
{16}E5,B5,B6,,,,6<1[8:1]/2>5[8:1],,,,26,,,,
{8}1x<6[8:1],,1/5-1[8:1],,2>5[8:1],,8,,7-5[8:1],5-8[8:1],,4h[4:1],,
{16}E8,B7,B6,,,,
{8}4/2>5[8:1],,7h[8:3],,6,5-1[8:1],,6-8>1[4:1],,1-5[8:1],2,3h[4:1],,4,5,6,7x<4[8:1],,7/5-1[8:1],,2-5[8:1],,8,,7-5[8:1],5-1[8:1],,3h[4:1],,
{16}{16}A1,B1,C,,,,
{8}2>5[8:1],,2/4-8[8:1],,7-4[8:1],7,,1h[4:1],,
{16}E5,B5,B6,,,,6-1[8:1]/2-5[8:1],,,,26,,,,
{8}8x<5[8:1],,8/3>8[8:1],,4-8[8:1],,1,,2-4[8:1],4-8[8:1],,6h[4:1],,
{16}A8,B8,C,,,,
{8}5-1[8:1]/2-5[8:1],,25,,8,7<4[8:1]/4>1[8:1],,7/4-8[8:1],,8,1,2h[4:1],,4,5h[8:1],,5bxh[8:12]/E2h[8:1],,E8h[8:1],,E3h[8:1],,E7h[8:1],,E4h[8:1],,E6h[8:1],,Ch[4:1],,,,4xbh[4:6]/E2h[8:1],,E8h[8:1],,E3h[8:1],,E7h[8:1],,E4h[8:1],,E6h[8:1],,Ch[4:1],,,,3x,3,5,5,4,4,6,6,2x,2,4,4,3,3,6,6,5x,5,7,7,4,4,5,5,3x,3,4,4,5,5,6x,6x,5xp1[2:1],,,,,,,,8p4[2:1],,,,,,,,2>5[2:1],,,,,,,,6<1[2:1],,,,,,,,2,2h[4:1],,4,4h[4:1],,5,5h[4:1],,7,7,,(190)6<1[8:1]/4>1[8:1],,46,,2,2h[4:1],,4,4h[4:1],,5,5h[4:1],,7,7,,6<1[8:1]/4>1[8:1],,
(170)4/6V82-4[16:36],,2h[16:36],,,,,,,,,,,,,,,,,,,,,,,,
{32}3,,
{16},,,,,,,,,,
{16},4,,,,
{2},,
{32},
{16},,,7,,,,,,,,,,,,6,,,,,,,,,,,5,,,,
{2},,,
{16},,,,,,,
{24},
{16}4h[16:78],,,,
{2},,,,
{16},,,,,
{32},
{16}5h[32:73],,,,
{1},,,,,,
E
