&title=光焔のラテラルアーク
&wholebpm=150
&artist=大国奏音
&des=蒼空のハレーション
&shortid=20001
&genre=オンゲキCHUNITHM
&cabinet=SD
&version=maimai FiNALE
&chartconverter=Neskol
&lv_2=3
&des_2=-
&inote_2=
(220)
{1},1,
E
&lv_3=8
&des_3=-
&inote_3=
(220)
{1},1,
E
&lv_4=11
&des_4=-
&inote_4=
(220)
{1},1,
E
&lv_5=13
&des_5=蒼空のハレーション
&inote_5=
(220)
{1},,
{8}56,,4,,
35,,4,,
{8}5/7h[2:1],,,,
,,6,5,
{8}7h[1:1],,1,,
2,,3,,
{8}4h[1:1],,,,
5,,6,,
{8}7<4[4:1],,,,
2,,,,
{8}3>8[4:1],,,,
7,,,,
{8}6h[2:3],,,,
,,,,
{16},,,,
,,,,
3,4,5,6,
7,8,1,2,
{16}3b/8,,47,,
36,,45,,
,,,,
1/6b,,25,,
{16}36,,45,,
,,,,
2-4[8:1]/4-6[8:1],,,,
24,,,,
{16}7b/4,,38,,
27,,18,,
,,,,
2b/5,,16,,
{16}27,,18,,
,,,,
1-5[8:1]/6-8[8:1],,,,
16,,,,
{16}2b/7b,,,,
,,,,
,,6,,
5,,4,,
{64}6,5,,,{16},,,
{64}5,4,,,{16},,,
{64}4,3,,,{16},,,
{64}5,4,,,{16},,,
{16}56,,56,,
47,,47,,
3,8,3,8,
2,1,2,1,
{16}2-6[8:1],,,,
2/8-4[8:1],,,,
8/1-6[8:1],,,,
1/5<4[1:2],,,,
{16}3h[2:1]/5b,,,,
,,,,
,,,,
,,,,
{16}6h[2:1],,,,
,,,,
,,,,
,,,,
{16}8b,,,,
,,,,
,,,,
,,,,
{4},,,6,
{16}6h[1:1],,,,
,,,,
,,,,
3,,,,
{16}3h[8:3],,,,
,,4h[4:1],,
,,5h[4:1],,
,,7,,
{16}7h[8:3],,,,
,,1h[4:1],,
,,3h[8:3],,
,,,,
{16}4h[8:5],,,,
,,,,
,,8,,
,,,,
{16}7-2[4:1],,,,
,,3-6[4:1],,3
,,,,
,,8-4[4:1],,
{16}8,,,,
,,1-6[4:1],,
1,,,,
,,5-2[4:1],,
{16}5,,,,
4,,4h[4:1],,
,,,,
,,,,
{16}1b/2,,38,,
,,7/8b,,
6h[4:1]/1h[4:1],,,,
,,,,
{16}7h[4:3],,,,
,,2,,
2-5[8:1],,2,,
2,,,,
{16}6h[4:3],,,,
,,1,,
1-5[8:1],,1,,
1,,,,
{16}7h[4:3],,,,
,,8,,
8-4[8:1],,8,,
8,,,,
{16}6h[4:3],,,,
,,2,,
2-5[8:1],,2,,
2,,,,
{16}7-2[4:1],,,,
,,3,,
3-6[4:1],,,,
,,5,,
{16}5-1[4:1],,,,
,,4,,
4-8[4:1],,,,
,,7,,
{16}6,,5,,
4,,3>8[4:1],,
,,7,,
6,,5,,
{16}4<7[4:1],,,,
,,3h[8:5],,
,,,,
,,,,
{16}7,,,,
8,7,8,7,
1,6,1,6,
2,5,2,5,
{16}3,4,3,4,
2,5,2,5,
1,,2,,
38,,7,,
{16}16,,,,
5,6,5,6,
4,7,4,7,
3,8,3,8,
{16}2,1,2,1,
3,8,3,8,
4,,3,,
25,,6,,
{16}47,,,,
1,2,8,7,
2,3,7,6,
3,4,6,5,
{16}3,6,3,6,
2,7,2,7,
2,,3,,
48,,7,,
{16}16,,,,
1,2,8,7,
2,3,7,6,
3,4,6,5,
{16}3,,3,,
26,,26,,
3,5,3,5,
3,5,,,
{16}4b/8b,,4b/8b,,
{24}6,5,6,5,,,
3,4,3,4,,,
2,4,2,4,,,
{16}5b/1b,,5b/1b,,
{24}3,4,3,4,,,
6,5,6,5,,,
7,5,7,5,,,
{16}4b/8b,,4b/8b,,
{24}2,,,,8,7,
62,,,,7,6,
52,,,,7,6,
{16}5b/1b,,5b/1b,,
{24}1,,3,,2,,
8,,6,,7,,
2,,4,,3,,
{16}8<1[2:3],,,,
,,,,
1,,,,
2,,,,
{16}3,,,,
,,,,
5h[4:1],,,,
,,,,
{16}1>8[2:3],,,,
,,,,
8,,,,
7,,,,
{16}6,,,,
,,,,
4h[4:1],,,,
,,,,
{16}1,,2h[8:3],,
,,8,,
7h[8:3],,,,
1,,2,,
{16},,,,
45,,,,
36,,,,
27,,,,
{16}78,,2b/5b,,
,,12,,
4b/7b,,,,
78,,2b/5b,,
{16},,,,
2h[4:1]/5,,,,
3h[4:1],,,,
4>1[8:1],,,,
{16}4<7[8:1]/6,,,,
4-1[8:1]/2,,,,
4-7[8:1]/6,,,,
4/2,,,,
{16}4>8[4:1],,,,
8<4[4:1],,,,
4>8[4:1],,,,
8<4[4:1],,,,
{16}4,,,,
8,7,6,5,
1,2,3,4,
8,7,6,5,
{16}1,2,3,4,
5,6,7,8,
15,4,3,2,
1,8,7,6,
{16}5>2[8:1]/3,,,,
5<8[8:1]/7,,,,
5-1[8:1]/3,,,,
57,,,,
{16}5<1[4:1],,,,
1>5[4:1],,,,
5<1[4:1],,,,
1>5[4:1],,,,
{16}5,,,,1,2,3,4,
8,7,6,5,
1,2,3,4,
{16}8,7,6,5,
4,3,2,1,
84,5,6,7,
8,1,2,3,
{16}47,{24},,6,5,
6,5,,,,{16}25,
{24},,3,4,3,
4,,,,{16}4b>7[8:3]/7,,
{16},,6,,
6h[2:1],,,,
,,,,
,,,,
{16}52,{24},,3,4,
3,4,,,,{16}74,
{24},,6,5,6,
5,,,,{16}5b<2[8:3]/2,,
{16},,3,,
3h[2:1],,,,
,,,,
1,,,,
{16}8-4[8:1],7,6,5,
4,,,,
,,7,,
7h[4:1],,,,
{16}1-5[8:1],2,3,4,
5,,,,
,,2,,
2,,,,
{16}1,8,1,8,
1,8,1,8,
1,8,1,8,
1,8,1,8,
{32}1,2,3,4,
5,6,7,8,
1,2,3,4,
5,6,7,8,
{32}15,4,3,2,
1,8,7,6,
5,4,3,2,
1,8,7,6,
{1}5/2bq5[4:11],,,,
{16}3/6h[2:1],,,,
,,5,,
5h[2:1],,,,
,,4,,
{16}4h[2:1],,,,
,,3,,3h[2:1]
,,,,
,,6,,
{16}6-3[1:1],,,,
,,,,
,,,,
,,,,
{16},,,,
,,,,
,,6,,
5,,4,,
{16}3h[2:1],,,,
,,4,,
4h[2:1],,,,
,,5,,
{16}5h[2:1],,,,
,,6,,
6h[2:1],,,,
,,3,,
{16}3-6[4:3],,,,
,,,,
,,,,
,,,,
{16}7h[8:5],,,,
,,,,
,,3,,
4,,5,,
{16}6-3[4:3],,,,
,,,,
,,,,
,,,,
{16}2-7[4:3],,,,
,,,,
,,,,
,,,,
{16}6-1[4:3],,,,
,,,,
,,,,
,,,,
{16}2-5[4:3],,,,
,,,,
,,,,
,,,,
{16}6h[4:1],,,,
5,,,,
47,,,,
3,,,3,
{16}4h[4:1],,,,
3,,,,
25,,,,
3h[4:1],,,,
{16}6h[4:1],,,,
5,,,,
47,,,,
3,,,3,
{16}4h[4:1],,,,
3,,,,
25,,,,
3h[4:1],,,,
{16}7h[4:1],,,,
8,,,,
16,,,,
2,,,2,
{16}1h[4:1],,,,
2,,,,
3/8h[2:1],,,,
,,,,
{16}1b,,,,
,,,,
,,,,
,,,,
{16},,,,
,,,,
5pp7[8:1]*pp7[8:1],,,,
,,,,
{16}5qq3[8:1]*qq3[8:1],,,,
,,,,
5-1[8:1],,,,
,,,,
{16}2b-6[8:1],,,,
8b-4[8:1]/2,,,,
8/5b-1[8:1],,,,
5b/7,,,,
{16},,78,,
,,12,,
3h[2:1]/8h[4:1],,,,
,,,,
{16}7h[4:1],,,,
1,2,3,4,
8,7,6,5,
1,2,3,4,
{16}8,7,6,5,
4,3,2,1,
84,5,6,7,
8,1,2,3,
{16}4V68[8:1]/6,,,,
4V28[8:1]/2,,,,
4-8[8:1]/6,,,,
42,,,,
{16}4V28[4:1],,,,
8V64[4:1],,,,
4V28[4:1],,,,
8V64[4:1],,,,
{16}4,,,,
8,7,6,5,
1,2,3,4,
8,7,6,5,
{16}1,2,3,4,
5,6,7,8,
15,4,3,2,
1,8,7,6,
{16}5b/2b,{24},,3,4,
3,4,,,,{16}7b/4b,
{24},,6,5,6,
5,,,,{16}4h[16:5]/2h[8:7],,
{16},,,,
{32}5,6,7,8,
1,,3,4,
{16}5,,,,
8b,,,,
{16}4b/7b,{24},,6,5,
6,5,,,,{16}2b/5b,
{24},,3,4,3,
4,,,,{16}5h[16:5]/7h[8:7],,
{16},,,,
{32}4,3,2,1,
8,,6,5,
{16}4,,,,
1b,,,,
{16}1p5[8:1]/5p1[8:1],26,37,48,
,,,,
,,26,,
37,,,,
{16}4-8[8:1]/8-4[8:1],37,26,15,
,,,,
,,37,,
26,,,,
{16}1,8,1,8,
1,8,1,8,
1,8,1,8,
1,8,1,8,
{32}1,2,3,4,
5,6,7,8,
1,2,3,4,
5,6,7,8,
{32}1,2,3,4,
5,6,7,8,
1,2,3,4,
5,6,7,8,
{16}1/5b,,25,,
35,,4/5b,,
,,,,
4b/8,,47,,
{16}46,,4b/5,,
,,,,
4-2[8:1]/5-1[8:1],,,,
45,,,,
{16}2b/8,,27,,
26,,2b/5,,
,,,,
7b/1,,72,,
{16}73,,7b/4,,
,,,,
7-5[8:1]/5-3[8:1],,,,
75,,,,
{16}14,,25,,
36,,4b/7b,,
,,,,
85,,74,,
{16}63,,2b/5b,,
,,,,
1-4[8:1]/4-7[8:1],,,,
14,,,,
{16}85,,74,,
63,,5b/2b,,
,,,,
14,,25,,
{16}36,,7b/4b,,
,,,,
8-5[8:1]/5-2[8:1],,,,
85,,,,
{16}34,,7,,
56,,2,,
34,,7,6,
5/2b,,1,,
{16}47,,8,,
25,,2,3,
4/8b,,6,,
15,,3,,
{16}8-6[8:1],,4-2[8:1],,
8,,4,,
7,,2,3,
4/8b,,6,,
{16}15,,3,,
84,,7,6,
5/2b,,1,,
47,,,,
{16}8h[8:5],,,,
,,,,
,,4,,
3,,2,,
{64}3,4,,,{16},,,
{64}4,5,,,{16},,,
{64}5,6,,,{16},,,
{64}4,5,,,{16},,,
{16}45,,45,,
36,,36,,
27,,27,,
18,,18,,
{16}1,8,1,8,
1,8,1,8,
2,7,2,7,
2-7[8:1],7,2,7,
{16}2b,,,,
3,3,3,3,
3,3,3,3,
3,3,3,3,
{32}3,4,5,6,
7,8,1,2,
3,4,5,6,
7,8,1,2,
{32}36,5,4,3,
2,1,8,7,
6,5,4,3,
2,1,8,7,
{1}6/2bpp6[4:5],,
{16}5,,,,
4,,,,
35,,,,
4,,,,
{16}4/6h[1:1],,,,
,,,,
,,,,
,,,,
{16}4h[16:5],,,,
,2h[8:3],,,
,,,8h[16:5],
,,,,
{16}6h[8:3],,,,
,,3h[8:3],,
,,,,
4h[16:5],,,,
{16},5h[8:3],,,
,,,6h[1:1],
,,,,
,,,,
{16},,,,
,,,3,
,,4,,
,5,,,
{1}6,
E
