&title=飾って
&artist=Onuma Parsley
&first=0.052
&des=Yuuki☆
&lv_5=13
&inote_5=(90){1},,,,{4},5<4[8:13],{8}B5,B6,B7,,B1,,B3,,,,,,,,4>5[8:12],,B4,B3,B2,,B8,,B6,,B5,,,,B5hf[8:2]/2-7[12:1],3,2,,
1,1h[8:2],,,8/6,5/7,4h[8:3]/6,,5,6h[8:3],,,5,4,3,2/4,1,8h[8:2]/2,,1,2/7,3/6,4,3q1-7[8:3]/6,5,3/6,,,1x/8x,B3,2/7,{16}1,8,1p5[8:1],7,,,{8}1/8,,
4/5,B7,3/6,{16},5xp1[70#10:1],4,3,,,{8}5/4,,1/8,B6,2/7,{16}8,1,8p4[8:1],2,,,{8}8/1,,3/4,2,1/7,8/6,7,6/4h[8:2],,B6hf[8:3],3-8[12:1],2,3,,
{32}1/6,,,8xh[32:1],7,,,,1,,,1,8,,,8xh[32:1],7,,,,5,,,6,7/4,,,,4,,,,3/4,,,3xh[32:1],2,,,,,,,,1,,,2xh[32:1],3,,,3,4,,,4,5/3,,,,5,,,,6/7,,,7xh[32:1],8,,,,
1,,,2,1x,,,8,1x,,,,2,,,3,4/1,,,,4,,,,5/6,,,6xh[32:1],7,,,,,,,,8,,,1xh[32:1],2,,,2,3,,,3,4/2,,,,5,,,,4/3,,,3xh[32:1],2,,,,1,,,8x,7,,,1x,2,,,,6,,,4,3/7,,,,8,,,,1/2,,,
3xh[32:1],7,,,,,,,,6,,,4xh[32:1],5,,,2x,1,,,3x,4,,,,5,,,,6/2,,,7xh[32:1],1,,,,8,,,5x,6,,,3xh[32:1],4,,,,2,,,6,6/1,,,,8,,,,2/7,,,6xh[32:1],3,,,,,,,,2,,,1xh[32:1],8,,,3x,4,,,,
{4}6bxh[8:16]/Cf,,,,,,,,3bxh[8:16],,,,,,,,{8},,E1,B1,B2/8h[8:1],B3,B4/7h[8:1],B5,B6/6h[8:2],,,E1,B8/1,B7,B6/2,B5,B4/3h[8:2],,4,Ch[8:7]/5x,6x,7x,8x,1x,2x,3x,4x,5xh[8:5],,
4xh[8:3],,,,,,{16},{32}4,5,{16}3x-8b[12:1],6x,6xh[8:1],,3b,,2x-5[160#8:1]/7x-4[160#8:1],3x/6x,{64}2b/7b,B2f/B7f,,,,,,,{8},1,1h[8:3],,,8,7p3[8:2],6h[8:2],,,5,4/6,7,8/6,1,8/2,3,4p8[8:1],5h[8:1]/4,,
6,7<4[8:2],8,1h[8:2]/7,,,5h[8:1],7,4h[8:1],2,5h[8:3],C,E1,{16}8,7,7h[8:4],B1/E1,,B3/E4,,B5/E6,,,,,B7,,B3,,1,2,2h[16:6],B8/E8,,B6/E6,,B4/E4,,,5,4,3/5,6,7h[8:1]/5,,4-2-8[8:1],,5,5h[16:3],,,,,8-6-4[8:1],,1,1h[16:5],,,,,,,
{8}8bh[8:5],B1,B2,B3,Chf[8:1],,4xh[8:1],5x,{32}3/6,,5,4,5,,3,,6,,4,,7x/5x,,,,7x/5x,,6,,{16}5/4h[8:2],,6,,C,,{32}5x/6x,,3,4,3,,4x,,5x,,6x,,{8}6h[8:1]/5,{48}B2,B3,B4,{16},{8}3x/5<7[12:1],4,5,{32}3/6,,4,5,4,,6,,3,,5,,2x/4x,,,,2x/4x,,3,,{16}4/5h[8:2],,3,,C,,{32}4x/3x,,6,5,6,,5x,,4x,,3x,,{8}3h[8:1]/4,{48}B5,B6,B7,{16},
{8}8x<8<8b[16:12],,,,,,,,3-1[12:1],4,5-3[12:1],6,{16}7-5[12:1],7h[16:2],,,{8},8h[8:1],1h[8:1],2h[8:1],3h[8:1],{16}4p6[16:3],4,,,,,,,2x-5[10:1],1x,1x,2x,,,,,7x-4[10:1],8x,8x,7x,,1h[16:1],,,8x,7,8,6,7bxh[8:1],,,,1x,2,1,3,2bxh[8:1],,,,8h[16:9],,7,,6,,5,,4>2-7[16:3],4,,,,,,,1h[16:9],,2,,3,,4,,5<7-2[16:3],5,,,,,,,8,8,8h[8:1],,B8,,,
2,2h[8:1],,B2,,,6,6h[8:1],,B6h[8:1],,,,,,{8}5x-7[8:1],5x-3[8:1],5x-8[8:1],5x-2[8:1],5x-1[8:2],5x,5b,,,{16},{32}5,4,{16}6x-1b[12:1],3x,3xh[8:1],,6b,,7x-4[160#8:1]/2x-5[160#8:1],3x/6x,{64}2b/7b,B2f/B7f,,,,,,,{8},8,8h[8:3],,,1,2q6[8:2],3h[8:2],,,4,5/3,2,1/3,8h[8:2],,,1/7,6,,
3,2>5[8:2],1,8h[8:2]/2,,,4h[8:1],2,5h[8:1],7,4h[8:3],C,E1,{16}1,2,2h[8:4],B8/E1,,B6/E6,,B4/E4,,,,,B2,,B6,,8,7,7h[16:6],B1/E2,,B3/E4,,B5/E6,,,4,5,6/4,3,2h[8:1]/4,,5-7-1[8:1],,4,4h[16:3],,,,,1-3-5<5b[16:14],,8,8h[16:13],,,,,,,,,,,,,,,,,Cf,,,,8,7,8,7h[8:1],,1,1h[8:1],,7p3[8:1],,B1,B2,,,,,
1,2,1,2h[8:1],,8,8h[8:1],,2q6[8:1],,B8,B7,,,,,3,3,4,4h[8:1],,2,2h[8:1],,4q8[8:1],,B2,B3,,,,,6,6,5,5h[8:1],,7,7h[8:1],,5p1[8:1],,B7,B6hf[16:1],,,,7x-3[8:1],8h[8:1],,7,,,,,2xp6[8:1],1h[8:1],,2,,,,,6xv1[8:1],5h[8:1],,6,,,,,3xz7[8:1],4h[8:1],,3,,,,,1-4b[8:1]/8-5[8:1],2/7,,1x/8x,,,,,4q1[8:1]/5p8b[8:1],3/6,,4x/5x,,,,,2v7b[8:1]/3v6[8:1],
1/4,,2x/3x,,,,,7s3b[8:1]/6z2[8:1],8/5,,7x/6x,,Cf,,4xh[8:1],,5x,,{32}3/6,,5,4,5,,3,,6,,4,,7x/5x,,,,7x/5x,,6,,{16}5/4h[8:2],,6,,C,,{32}5x/6x,,3,4,3,,4x,,5x,,6x,,{8}6h[8:1]/5,{48}B2,B3,B4,{16},{8}3x/5<7[12:1],4,5,{32}3/6,,4,5,4,,6,,3,,5,,2x/4x,,,,2x/4x,,3,,{16}4/5h[8:2],,3,,C,,{32}4x/3x,,6,5,6,,5x,,4x,,3x,,{8}3h[8:1]/4,{48}B5,B6,B7,{16},
2x/7x,,1xh[8:1],,8x,,{32}2/7,,8,1,8,,2,,7,,1,,6x/8x,,,,6x/8x,,7,,{16}8/1h[8:2],,7,,C,,{32}8x/7x,,2,1,2,,1x,,8x,,7x,,{8}7h[8:1]/8,{48}B1,B2,B3,{16},{8}2x/8<6[12:1],1,8,{32}2/7,,1,8,1,,7,,2,,8,,3x/1x,,,,3x/1x,,2,,{16}1/8h[8:2],,2,,C,,{32}1x/2x,,7,8,7,,8x,,1x,,2x,,{8}2h[8:1]/1,{48}B8,B7,B6,{16},
{8}5x-8>1v4<5b[8:5],
