&title=3 A.M. ディテクティブ・ゲーム
&artist=霜月凛
&first=0
&des=ナツナツフユフユ
&lv_5=13+
&inote_5=(162)
{1},{16},
{8}1h[2:1],,,,4,5,2,3,7h[2:1],,,,
{16}3,3,,12,,,,,
{8}8h[2:1],,,,5,4,7,6,2h[2:1],,,,
{8}5,46,7^4[8:1],,
{8}1,1,{16}2,8,2,,{8}7h[4:1],E5,E4,E3,
{8}5,5,{16}3,4,3,,6,6,,78,,,,,
{8}6,4,{16}7,1,7,,{8}2h[4:1],E5,E6,E7,
{8}4,6,{16}35,2,1h[8:3],,3hx[4:1],,,,,,,,
{8}1>6[2:1],,6,,7,,8,8h[8:3],,,6,5>1[4:1],,,
{8}8,8<4[4:1]b,,,2,2-5[8:1],,1>7[2:1],,1,,
{8}1,2,3,4,8,2,6,
{8}3/8<3[2:1],,3,,2,,1,1h[8:3],,,3,4<8[4:1],,,
{8}1,1>5[4:1],,,7,7-4[8:1],,,8<2[2:1],8,8,,,,,,C,,
{8}24,4,3,5-1[8:1],,57,6,5,24,2,4,3^5[8:1]/5,,,
{8}7,18,2>6[4:1],,6>2[4:1],,8,8,7,6-2-4-8[2:1]b,,,,,,,,
{8}1/8-4[8:1],,,{16}2b,,,7,7,,3,,8,,1,,{8}6,4,5-1[8:1],4,,,
{8}2,5h[4:1]/6,,,7,3/4h[8:1],,B8/B1,E7/E3,E6/B5/B4/E4,,
{8}2,8,12,,6,78,,
{4}1xv8[4:1]/6x,6,5,5V71[4:1],{16}3,,,,3,,,,3,2pp4[4:1]/8^3[4:1],,,,,,,,,,,
{8}1xv2[4:1]/7x,,7,,8,,8V64[4:1],,2,,2-6[8:1],,,
{8}4,4b^5-7[8:1],,8,8b^1-3[8:1],,,Ch[2:1],,4,3,2,1xw5[8:1],,1bx,,
{8}7,1v3[8:1]/7,8,1/5-7[8:1],6,5v2[8:1]/2,4,58,6,{16}5,,5,3,5,,4,5,4,,4,6,4,,
{8}47,3v5[8:1]/8,2,3/8-6[8:1],7,8v3[8:1]/3,1,58,7,{16}8,,8,1,8,,1,7,1,,1,6,1,,
{8}25,3v2-8[4:1]/5,3,7,6h[4:1],,,,
{8}47,8-6-1-5[4:1]/4,8,3,2h[4:1],,,,
{8}2,4^7[8:1],3,24,2h[4:1],,,
{8}18,7,5^2[8:1],6,
{16}5,7,6,5,4,3,2,1,48,,6,,
{8}5^2[8:1]/6,4,5/7v4[8:1],6,1^6[8:1]/7,2,1^4[8:1],5,{16}1,,6,6,5,,8,8,1,,24,,4,,
{8}3,3/4^7[8:1],5,2v5[8:1]/4,3,2/8^3[8:1],7,8^5[8:1],4,{16}8,,3,3,4,,1,1,8,,57,,6,,
{8}4V28[4:1]/5,8,8V24[4:1],7,6h[4:1],,,,
{8}5V71[4:1]/4,1,1V75[4:1],2,3h[4:1],,,
{16}3,4,2,,18,,7,5,7,,2,4,2,,18,,57,,47,,6,5,6,,
{4}4/7^4[4:1],4^1[4:1],8qq8pp8<8[2:3]b,8b,,,,,,,,
{8}5,6h[8:5],E1,E2,E3,,,,
{8}4,3h[8:5],E1,E8,E7,,,,
{12}3,4,3,6,5,6,2h[6:1],1,1,7h[6:1],8,8,2,3,4,8,7,6,3,2,1,5,6,7,
{32}1,,8,,1,,8,,1,,8,,1,,8,,1,,8,,1,,8,,
{4}1>8[2:1],,,,,
{1}1qq3[1:1],,5pp4[1:1],,
{4}2h[8:1]/4-7[8:1],4>7[4:1]/2h[8:1],4/2h[8:1],3h[8:1],
{4}7h[8:1]/5-2[8:1],5<2[4:1]/7h[8:1],5/7h[8:1],6h[8:1],
{8}35,34,3,13,46,56,6,6/8x-5[8:1]*-3[8:1],,,,,{16}8,8,8,,C,,,,
{8}1v4[8:1]/7,2,1/8^5[8:1],7,2-6[8:1]/8,2,4-8[8:1],4,1^4[8:1],2,1/7-3[8:1],8,27,1h[4:1],,,
{8}8v5[8:1]/2,7,8/1^4[8:1],2,1/7-3[8:1],7,5-1[8:1],5,7v4[8:1],6,78,2,5,{16}3,4,3,,
{8}6,8,7,{16}78,,,68,,,78,,5,,
{8}3,1,2,{16}12,,,13,,,12,,4,,
{8}57,6^1[4:1],,1s5[4:1],2,{16}3,,,3,,,3,,,,
{16}6,5,6,,4,5,4,5,4,5,4,5,4,,
{8}7bh[2:1]/3b,,,,3,2,6,5,1h[2:1],,,,{16}6,6,,78,,,,,
{8}6b/2bh[2:1],,,,6,7,3,4,8h[2:1],,,,4,35,2^5[8:1],,
{8}8,8,{16}7,1,7,,{8}2h[8:3],B8,B7,B6,4,4,{16}6,5,6,,3,3,,12,,,,,
{8}3,5,{16}2,8,2,,{8}7h[8:3],B1,B2,B3,5,3,{16}45,6,7,8,1hx[4:1]/3hx[4:1],,,,,,,,
{16}56,56,,,,,18,18,,,,,34,34,,,,,5,,,,1,,2b/6b,,,3b/7b,,,4b/8b,
{1},,,
E
