&title=携帯恋話
&artist=まふまふ ft. 25時、ナイトコードで。 × 初音ミク
&first=0.455
&des_1=「いかないでよ」
&des_2=「いかないでよ」
&des_3=「いかないでよ」
&des_4=「いかないでよ」
&des_5=「いかないでよ」
&lv_5=13
&des_6=「いかないでよ」
&des_7=「いかないでよ」
&des=「いかないでよ」
&inote_5=(150)
{16}
2,4,3,5,4,6,5h[8:2],,,,A8,,,A1,,,72,,,,3,,4h[8:2],,,,2,,,35,,,
7,5,6,4,5,3,4h[8:2],,,,D2,,,D8,,,63,,,,4,,7,,,1,8,,,63,,,
3,5,4,6,5,7,4h[8:2],,,,E7,,,E3,,,81,,,,2,,4,,,,1,8,,72,,,
6,4,5,3,4,2,5h[8:2],,,,D3,,,D7,,,8b/1b,,,,43,,54,,65,,
A8/C1h[8:3]f,,,,,,
{8}
7b-4[8:1],,2,1,8>3[8:1],,4-8[8:1],5,7,,6-1[8:1],,3<6[8:1],,7,8,1-5[8:1],,4>1[8:1],,7h[8:2],,8,16,2h[8:2]/5,,4,3,6hxb[8:4],E5,A7,A2,C1f,,
{16}
3,4,3,,25,,1,8,,5,6,,7h[8:2]/4,,,,1,,24,,35,,1,8,,5,6,,2h[8:2]/8,,,,
7,,63,,54,,8,1,,4,3,,25,,,,7,8,7,,61,,
3,5,4,5,2,4,3hx[8:2],,,,
5,,4,6,,5h[16:7],,7,,8h[16:7],,,,,,,4,,6,3,,4h[16:3],,,2,,2,,8h[16:4]/3,,,,4,,4,,,3h[16:5]/5<1[14:4],,,,,,,,,,,
2,,2,,4,3,,6,5,,74,,1hx[8:2],,,,3,,2,4,,3h[16:7],,5,,6h[16:7],,,,,,,4,,7,5,,8h[16:5]/4,,,3,,2,,5h[16:4]/1,,,,3,,6,4,,7h[16:4],,5,,5,,,6/4h[8:2],,,,
7,,7,,3,5,,6,4,,72,,5x/4x,,,,3,,4,3,,3,5h[8:2],,2,,4h[8:2],,8,,6,,
7,,5,8,,7h[16:5]/4,,,1,,2,,8/3h[16:4],,,,5,,6,4,,4,7h[8:2],,E6,,E2,,3h[8:2],,,,8,,4,,7,5,6,5,7,,8,,1hx[16:4]/5x,,,,4,,3,5,,5,2h[8:2],,4,,8h[8:2],,5,,4,,6,,5,7,,8h[16:5],,,4,,3,,5/2h[16:4],,,,6,,7,,8,,2,4,3,5,4,6,C1h[8:7],,,,E8,,E2,,A6,,A3,,8x,,1xh[8:14],,,,4-2[8:1],,,,,,,,8-6[8:1]b,,,,,,,,4,,3,,2,,3,,4h[8:8],,,,,,3,,2,,1,,8,,1,,2h[8:7],,,,E4,,E5,,E6,,,,,,3,,3,,,,8hx[8:14],,,,5-7[8:1],,,,,,,,1-3[8:1]b,,,,,,,,5,,6,,7,,6,,5h[8:8],,,,,,6,,7,,8,,1,,8,,7h[8:4],,,,E6,,E5,,E4,,,,D1,,3,,4,,5,,6,4,7,,8-4[8:1],,,,83,,2,,1w5[8:1],,,,1,,,,7/3h[8:1],,7,,6h[8:1]/2,,2,,5/1h[8:1],,5,,8h[8:1]/4,,4,,
{8}73,2>4[8:1],1/6x<8[8:1],2x,6x,5x-1[8:1],8x-4[8:1]b,5x,8xb,,D7/D3,,
{16}
7,4,5,4,8,5,6hbx[8:2],,,,1,,27,,45,,3,4,2-5[8:1],1,,,2x/8x,,,,7,,65,,82,,6,5,7-4[8:1]b,8,,,7x/1x,,,,2,,83,,5,4,6h[8:1],,5,7h[16:3],,,1,,2,,83,,6pp4[8:2],5,,1h[16:5],,,,,,,
3hxb[8:2],,,,6,,78,,12,,5,4,7-3[8:1],8,,,7x/1x,,,,2,,65,,43,,7,8,5-1[8:1]b,4,,,5x/2x,,,,3h[8:1],,7h[8:1],,4,,6/C1,,,C1/2,,,84,,3-8[8:1],,7,,3,,4>5[8:2]b,,,,1x,,1x,,2hxb[8:2],,,,6,,34,,21,,5,4,7w3[8:1],8,,,7b,,,,15,,34,,65,,2,1,4w8[8:1]b,5,,,4b,,,,26,,34,,78,,12,,6,5,,3,4,3,6x,4,5,4,7x,5,6,5,8x,3,4,
1x,6,5,7hx[8:2],,,,8,,16,,25,,3-1-7[8:2]/4,,,5,3,,4h[8:2],,,,1,,2,,83,,,,65,,34,,81,,
2x,7,3,6,4,5,2x,7,4,5,3,6,1,8,C1h[8:2],,,,7,,4,,3/C1h[8:2],,,,2,,5,,7,,6b/1b,,,,2,4,1b/5b,,,,7,5,8bh[8:6]/4bh[8:2],,,,,,E7,,E3,,E5,,1,2,3,4,5,6,7,8,1xqq1[24:11]b*pp1[24:11]b,,,,,,,,,,,,,,
34,,6x/5,,2x/4,,75,,3,4,,6,5,,72,,
{24}
1x,8x,1x,8x,1x,8x,1x,8x,1x,8x,1x,8x,1x,8x,1x,8x,1x,8x,1x,8x,1x,8x,1x,8x,1x,8x,1x,8x,1x,8x,1x,8x,1x,8x,1x,8x,1x,8x,1x,8x,1x,8x,1x,8x,1x,8x,1x,8x,
{16}
1x,,
,,
24,,3,,2^7[8:1]/4,,,,5-8[8:1],,4,,,,,,24,,3,,2h[8:1]/4,,8h[8:1],,6h[8:1],,4h[8:1],,2x-8-6[8:2],,,,5,,4,,3-1-7[8:2],,,,6x,,5x,,4-2-8[8:2],,,,7,,6,,5-7-1[8:2],,,,2x,,3x,,4>8[8:2],,,,7,,6,,5h[8:2],,,,4,,3,,72,,3,4,E2,6,5,A8,3,4,
{24}2x,1x,8x,7x,6x,5x,4x,3x,2x,
{16}
8xb/1xb,,,,6,5,6,,4,,7,8,,2,1,,6xh/3xh,,74,,2,1,2,,8,,6,4,,3,5,,7xh/2xh,,83,,6,4,6,,7,,5,3,,4,6,,8xh/1xh,,26,,3,5,3,,A2h[8:1],,A8h[8:1],,A6h[8:1],,A4h[8:1],,A2/D3f/A3,,,,7,8,7,,16,,3,4,1-5[8:1],8,2,,7x/1x,,,,8,,4,,73,,6,5,8w4[8:1],1,7,,8x,,,,2,,6,,73,,1,8,5w1[8:1],6,4,,5x,,,,
3,4,2,2,6,5,7,7,2,4,1,8,
{2}5b<4[24:98],,,,,,,,
7-3[12:1]b,
E
