&title=Alfheim's Faith
&artist=影虎。
&first=-0.17
&des=邹师傅。
&des_5=
&lv_5=14+
&inote_5=(200){1},,,
{4},,,4h[4:3]/5h[4:3],
{4},,,2h[4:1],
{4}4h[4:1],3h[4:3],,,
{4},7h[4:1],5h[4:1],6h[4:3],
{4},,,3h[4:1],
{4}5h[4:1],1h[4:3],,,
{16},,,,6h[4:1],,,,4,3,2,1,8bv3[8:1]*-4[8:1],,,,
{16}8,,,,2,1,2,,7b-4[8:1]*-3[8:1],,,,,,,,
{16}1bv6[8:1]*-5[8:1],,,,1,,,,7,8,7,,2b-5[8:1]*-6[8:1],,,,
{8},,8,8h[4:1],,1,1h[4:1],,
{4}8b-4[8:1],7b-3[8:1],6b-2[8:1],5b<3[2:1],
{2},4bw8[8:1],
{8}6bx/2bx,,2,2>5[8:1],,8,8-4[8:1],,
{8}3-1[8:1],,5-7[8:1],,8,,2,2-5[8:1],
{8},6,6-1[8:1],,4-6[8:1],,2-4[8:1],,
{8}8,,8,8,7,7,6,6,
{24}7/5,,,7/5,,,8/4,,,8/4,,,1/3,,,1/3,,,2,,4,,3,,
{96}6,,,,,,,,5,,,,,,,,7,,,,,,,,4,,,3,,,2,,,1,,,8,,,7,,,6,,,5,,,4b/8b,,,,,,,,,,,,,,,,,,,,,,,,,,,,,,,,,,,,,,,,,,,,,,,,
{8},,2h[2:1],,,3,,,
{4}4/3h[2:1],5,6,7h[2:1],
{8},5,,,5/6h[2:1],,4,,
{8}3,,4/2h[2:1],,,5,,,
{8}3/7h[2:1],,,1,,,8/1h[2:1],,
{8},7,,,3h[2:1]/1qq5[8:3],,,,
{8},,2h[2:1],,,4,,,
{4}5/3h[2:1],6,7,8h[2:1],
{8},5,,,4/7h[2:1],,3,,
{4}2,5/1h[2:1],6,7,
{4}1/8h[2:1],2,3,4xqq8[8:3],
{32},,,,,,,,,,,,,,,,7bx-4-2-5[4:1],6x,5x,,,,,,8,,,,8,,,,
{8}8,,1b>3[8:1],,8/1-4[8:1],8,7/1-5[8:1],7,
{8}6/1>3[8:1],,6/1-4[8:1],6,7/1-5[8:1],7,8/1>3[8:1],,
{16}8/1-4[8:1],,8,,8/1-5[8:1],7,6,,1/8V62[4:1],,,,4,,3,,
{12}1x,8,8,2,7,7,3,4,2,6,5,7,
{12}2,4,3,7,5,6,1x-4[8:1],,,8/1-5[8:1],,,
{16}8/1,7,6,,1/8<6[8:1],,,,2/8-5[8:1],,,,3/8-4[8:1],,3,,
{24}2/8,,,2,,,1,,5,,5,,2,,6,,6,,3,,7,,7,,
{12}4x-1[8:1]/8x-5[8:1],,,8/4,,,6b/2b,,2,7,3,3,
{24}6,,4,,5,,7x-4[8:1]/3x-8[8:1],,,,,,7/3,,,,,,5x/1x,,,5/1,,,
{8}6/2,6/2,7/3,7/3,8/4,8/4,7/3,7/3,
{16}6/2,,6/2,,1,5,2,6,3,7,4,8,3,7,2,6,
{4}5xp4[8:3]/1xp8[8:3],,,6b/2b,
{8}8/1>4[4:1],,4-2-6-1[2:1],,5,5,5,5,
{8}5,5,7/3,,8-6[8:1],4,5-1[8:1],,
{8}4-2[8:1],,5-1[8:1],,4,4,6/2,,
{8}8/1v4[4:1],,4V26-8[2:1],,5,5,5,5,
{8}5,5,3/7,,2-8[8:1],2x,6-2[8:1],6,
{8}3-5[8:1],,6<1[8:1],,4,4,2/7-4[8:1],,
{8}2,3,3,4,2/5-2[8:1],,6,7,
{8}7,2,3/8-4[8:1],,2,3,3,4,
{8}6-1[8:1],,2-5[8:1],,6,6,3/7,,
{16}1,2,3,4,7,8,1,2,5,6,7,8,3,4,5,6,
{16}1,2,3,4,8x,3,7,2,6,1,5x,2,6,3,7,,
{4}8x<5[8:1]/4x>1[8:1],4-8[8:1]/8-4[8:1],8/4,Cf,
{2},E8,
{4},E7,,,
{4}E6,,,E2,
{2},E3,
{4},E4,,,
{4}C,,,4/5h[2:1],
{4}3,2,4/6h[2:1],3,
{8}2,2,5/4h[2:1],,6,,7,,
{16}3,,5,,4,,6,5,6,,4,,4/5pp1[2:1],,,,
{4}3,2,4h[4:1],8h[4:1],
{8}2,2,3/7p3[4:1],,2,,1,,
{16}4x,5,6,7,8,1,2,3,4,5,6,7,8b/1b,,,,
{12},,,,,2,2,,,,,,
{12},,3,3bp6[4:1]/7bp2[4:1],,,,,,,,,
{8}4/8<5[8:1],,8>3[8:1],,8,,4x/8x<4[4:1],3,
{8}2,2,1,1,6-1[8:1],2,2-6[8:1],,
{16}8,,,,3/7<3[4:1],,3,2,1,,1,,8,,8,,
{16}5-8[8:1],,1,,1v4[8:1],,,,7,,,,7/3,2,1,8,
{16}7V58[4:1],6,5,4,7/3,,,,1,2,3,4,5/8,7,6,5,
{48}4/1,,,2,,,3,,,4,,,5/8,,,,,,,,,,,,5,,,,6,,,,5,,,,7,,,,,,8,,,,,,
{16}1/2>5[8:1],,,,6,7,8,,8-4[8:1],,3,,8/1>5[4:1],,,,
{24}6,,,6,,,7,,,7,,,8,,4,,4,,6,,2,,2,,
{8}4-8[8:1],,4/5<1[16:5],,2,2,3,3,
{16}4,8,4,8,3,7,3,7,2-5[8:1],,,,6-1[8:1],,6,,
{16},,2,3,4-8[8:1],,,,5<1[4:1],,5,,2,,2,,
{8}3,3,8/4qq8[8:3],,7,7,6,6,
{16}5,1,5,1,5b,,3,4,2,,2,1,3/8-4[8:1],,5x,4,
{16}3,,3,,2,,2,,5,,7,8,7-4[8:1],,8,,
{16}1,,1,,2/5,,2/5,3/6,4/7,,7/4,6/3,5/2,,2,,
{16}1x-3b[16:1],,,8x-4b[16:1],,,7x,,7,6,5,,3,5,3,5,
{16}4,6,4,6,3,7,3,7,2,6,2,6,1,5,1,5,
{48}8,,,4,,,8,,,4,,,1qq6[8:3],,,,,,,,,,,,2,,,,3,,,,4,,,,5,,,,,,4,,,,,,
{12}7/3-7[8:1],,,8-5-1[6:1],,,2,,,4,8x,8,
{12}3,7,7,2,6,6,1x-5[8:1]/5x-1[8:1],,,5/1,,,
{48}3,,,,7,,,,7,,,,2,,,,6,,,,6,,,,4,,,,5,,,,3,,,,6x-2[8:1]/2x-6[8:1],,,7x/1x,,,8x,,,,,,
{8}6b/2b,,1x/5x,5/1,8/4,8/4,7/3,7/3,
{16}6/2,,6/2,,5/1,,5/1,,8/4,,8/4,,1x,5,2,6,
{16}3,7,4x,8,3,7,2,6,1x,5,2,6,3,7,4,8,
{32}3,2,1,8,7,6,5,4,7b/3b-7[2:3],,,,,,,,,,,,,,,,,,,,,,,,
{4}2,,,1,
{32},,,,,,,,,,,,,,,,2/6,3,4,5,6,7,8,1,2,3,4,5,6,,,,
{8}E4f/B4/B3/B8/E8/B7,,2-5[8:1],5V31[4:1],5,6,7,8,
{8}6-1[8:1]/2-5[8:1],,6/2,,7-5[8:1],5V37[4:1],4,3,
{16}2,,1,,6x,5,4,3,8x,7,6,5,7x-4[8:1],,4V68[4:1],,
{8}4,3,2,1,3-8[8:1]/7-4[8:1],,3/7,,
{16}2-4[8:1],,4V62[4:1],,5,,6,,7,,8,,3x,4,5,6,
{16}1x,2,3,4,5/1b,6,7,8,2b,1,2,1,3,8,3,8,
{48}4,,,7,,,4,,,7,,,5,,,,6,,,,5,,,,7,,,,8,,,,7,,,,1b,,,8,,,1,,,8,,,
{48}2,,,7,,,2,,,7,,,3,,,6,,,3,,,6,,,4,,,,5,,,,4,,,,6x,,,5x,,,6x,,,,,,
{48}3b,,,4,,,3,,,4,,,2,,,5,,,2,,,5,,,1,,,6,,,1,,,6,,,8,,,,7,,,,8,,,,
{24}6,,5,,6,,7b/4b,,,2b/1b>8[4:1],,,,,,Ch[4:1],,,,,,,,,
{8}1b/2b,5b/6b,7b/8bw4[8:1],3b/4bw8b[8:1],8b,,,,
{2},1b,
