&title=MAX 300
&artist=Ω
&first=0
&des=∞@HARDCORE TECHNO
&lv_5=13
&inote_1=
&inote_5=(300){1},
{8}4/5,,5,,4,5,,4,5,,4,,5,4,,5,4,,5,,4,5,,4,5/3,,5-1[4:1]/3-7[4:1],,5/3,,,,5/4,,4,,5,4,,5,4,,5,,4,5,,4,5,,4,,5,4,,5,4/6,,4v2[4:1]/6v8[4:1],,4/6,,,,4,,3/5,,3,5,4,6,5,,6/4,,6,4,5,3,4,,3/5,,3,5,4,6,7/5,,7-4[4:1]/5-2[4:1],,7/5,,,,4/5,,5,6,5,6,5,6,5,,4,3,4,3,4,,2,3,2,,7,6,7,,4,5,4,5,4,5,4,5,
{8}3/4,,1/2,,2,4,3,5,4,6,5,,6,4,5,3,4,2,3,,2,4,3,5,4,,1/2,,1/8,,8/7,,6/5,,8/7,,7,5,6,4,5,3,4,,3,5,4,6,5,7,6,,7,5,6,4,5,,7/6,,1/8,,3/2,,3/4,,1/2,,2,4,1,5,2,6,3,,6,2,5,1,4,2,3,,2,4,1,5,2,,3/4,,4/5,,5/6,,5/4,,6,,,6,,6,5/4,,3,,,3,,3,5/4,,5/6,7/4,,3/4,2/5,,2,2,1,1,8,8,7,7,
{4}7/8,6,8,5,8,3,1/2,2,1,3,1,4,1,5,1,6,1,7,1,6,1,5,1,4,1/2,3,1,2,1,3,1,3,1,4,1,5,7/8,6,8,5,8,4,1/2,3,1,2,1,8,
{4}1/8,7/8,1/8,1/2,1/8,1/7,1/8,8/2,1/8,8/6,1/8,1/3,1/8,7/6,1/8,2/3,1/8,7/5,1/8,2/4,1/8,5/6,1/8,3/4,5/4,6/5,4/5,3/4,4/5,7/6,4/5,2/3,4/5,7/8,4/5,1/2,4/5,5/6,7/6,8/7,1/8,1/2,2/3,,3/4,,4/5,,
{8}4/6,,5,,3,4,,3,4,,5,,3,4,,3,4,,5,,3,4,,3,8/2,,8-4[4:1]/2-6[4:1],,8/2,,,,5/3,,4,,6,5,,6,5,,4,,6,5,,6,5,,4,,6,5,,6,1/7,,1v3[4:1]/7v5[4:1],,1/7,,,,4/6,,5,6,,4,5,3,4,,5,6,,4,5,3,4,,5,6,,4,5,3,1/2,,1-4[4:1]/2-7[4:1],,1/2,,,,5/3,,4,5,4,1,2,1,4,,5,4,5,8,7,8,
{6}5,5,5,3,3,3,1,1,1,
{2}1>1[1:4]/5,,,,,,,,,
{8}7,3,7,3,7,,2,6,2,6,2,,2/6,,7/3,,1/5,,1,5,1,5,1,,8,4,8,4,8,,4,7,4,5,2,5,3,4,3,4,3,,6,5,6,5,6,,4,5,5/4,,7/2,,1,8,1,8,1,,1/8,,6/3,,2,4,2,3,2,,3,4,3,5,3,,4,6,4,5,4,,5,6,5,7,5,,7,8,7,6,7,,6,5,6,7,6,,7,8,7,7,7,,6,5,6,6,6,,5,5,5,5,5,,4,4,4,4,4,4,4,4,4,4,
{8}4,,4,5,,3,4,,2,,3/4,,,2/3,,,1/2,,8,1,,7,8,,6,,7/8,,,7/6,,,5/6,,4,5,5,3,4,4,2,,3/4,,,2/3,,,1/2,,8,1,1,7,8,8,6,,7/8,,,1/2,,,5/6,,4,5,5,4,3,3,4,,5,4,4,5,6,6,5,,3,4,4,5,4,4,3,,6,5,5,4,5,5,6,,4,5,5,5,3,3,3,,5,4,4,4,6,6,
{6}5/4,5/4,5/4,,,,1/8,1/8,1/8,,,,7/5,6/4,5/3,2/4,3/5,4/6,1b/8b,E
